<?xml version="1.0" standalone="no"?>
<!DOCTYPE svg PUBLIC "-//W3C//DTD SVG 1.1//EN" "http://www.w3.org/Graphics/SVG/1.1/DTD/svg11.dtd" >
<svg xmlns="http://www.w3.org/2000/svg" xmlns:xlink="http://www.w3.org/1999/xlink" version="1.1">
<metadata>
Created by FontForge 20170731 at Fri Oct 21 21:55:13 2016
 By Aleksey,,,
(c)  2012 Bahij Virtual Academy. All rights reserved.
</metadata>
<defs>
<font id="BahijNazanin-Bold" horiz-adv-x="0" >
  <font-face 
    font-family="Bahij Nazanin"
    font-weight="700"
    font-stretch="normal"
    units-per-em="2048"
    panose-1="2 4 7 3 6 2 1 2 2 3"
    ascent="1638"
    descent="-410"
    x-height="753"
    cap-height="1117"
    bbox="-248 -1655 4836 2076"
    underline-thickness="40"
    underline-position="-130"
    unicode-range="U+0020-FEFC"
  />
<missing-glyph horiz-adv-x="728" 
d="M0 0v1020h728v-1020h-728zM117 947l247 -372l248 372h-495zM655 881l-247 -371l247 -372v743zM612 73l-248 371l-247 -371h495zM73 138l247 372l-247 371v-743z" />
    <glyph glyph-name="uniFB01" unicode="fi" horiz-adv-x="1002" 
d="M774 1158q52 0 87 -35t35 -90q0 -51 -36.5 -86t-85.5 -35q-50 0 -86.5 35t-36.5 86q0 55 35 90t88 35zM859 164q0 -56 6 -77q4 -13 15.5 -18.5t37.5 -9.5l57 -3v-61q-53 1 -106 3t-115 2q-55 0 -107 -2t-104 -3v61l57 3q25 4 37 9.5t15 18.5q6 21 6 77v371q0 58 -14.5 82
t-47.5 24h-51l-11 -31h-182v-446q0 -56 7 -77q8 -26 59 -28l57 -3v-61q-57 1 -111.5 3t-116.5 2q-53 0 -108 -2t-123 -3v61l67 3q54 4 62 28q7 21 7 77v446l-130 -8v39q35 17 68 34.5t62 39.5v70q0 50 2.5 80.5t11.5 55t27 44t49 45.5l122 102q29 24 50.5 37t39.5 20.5
t33 9.5t31 2q33 0 66 -10v-159l-26 -12q-22 15 -49 27t-54 12q-37 0 -58.5 -11t-31.5 -31.5t-11.5 -48.5t-1.5 -59v-177h182q52 0 100 5.5t94 19.5l118 36l13 -2v-607z" />
    <glyph glyph-name="uniFB02" unicode="fl" horiz-adv-x="1002" 
d="M656 931q0 35 -1 57t-5.5 34.5t-13.5 17.5t-23 7l-44 4v-54l-24 -7q-13 19 -39 34t-53 15q-56 0 -72.5 -43t-16.5 -107v-177q42 0 95.5 1.5t102.5 4.5l7 -13l-18 -95h-187v-446q0 -56 7 -77q2 -13 25.5 -18.5t49.5 -9.5l40 -3v-61q-56 1 -111 3t-116 2q-54 0 -108.5 -2
t-122.5 -3v61l67 3q53 4 62 28q7 21 7 77v446l-130 -8v39q35 17 68 34.5t62 39.5v70q0 50 2 80.5t11.5 55t27.5 44t49 45.5l121 102q57 48 88 58.5t56 10.5q17 0 28 -2l22 -4v-60q44 6 87 12.5t87 20.5l99 33l14 -10v-1007q0 -56 7 -77q2 -13 14 -18.5t38 -9.5l57 -3v-61
q-52 1 -105.5 3t-116.5 2q-53 0 -105.5 -2t-105.5 -3v61l57 3q27 4 38.5 9.5t14.5 18.5q7 21 7 77v767z" />
    <glyph glyph-name="uniFC31" unicode="&#xfed3;&#xfef0;" horiz-adv-x="2088" arabic-form="isolated" 
d="M1844 1170l-133 -132l-132 132l132 130zM1837 582q-9 39 -46 82q-46 52 -97 52q-45 0 -76.5 -22.5t-31.5 -59.5q0 -66 138 -66q75 0 113 14zM1338 1q-97 4 -197 18q-131 18 -184 18q-62 0 -102 -24q-34 -22 -34 -47q0 -33 43 -39l274 -43q43 -6 71 -37q34 -36 32 -89
q-7 -198 -228 -272q-150 -49 -459 -49q-468 0 -472 346q-1 125 94 324q33 71 74 71q39 0 39 -40q0 5 -31.5 -82.5t-31.5 -146.5q0 -158 182 -221q108 -37 260 -37q446 0 446 69q0 24 -56 34l-241 43q-123 22 -123 95q0 123 110 236q132 133 332 133q22 0 105 -5.5t155 -5.5
h192q98 0 195 22q120 29 120 75q0 28 -15 47q-118 -19 -192 -19q-100 0 -148 19q-74 31 -74 113q0 130 59 257q73 156 185 156q278 0 278 -536q0 -216 -125 -307q-106 -77 -331 -77h-189q-6 0 -13 1z" />
    <glyph glyph-name="uniFC32" unicode="&#xfed3;&#xfef2;" horiz-adv-x="2088" arabic-form="isolated" 
d="M877 -762l-119 -119l-119 119l119 122zM605 -762l-120 -119l-119 119l119 122zM1844 1170l-133 -132l-132 132l132 130zM1837 582q-9 39 -46 82q-46 52 -97 52q-45 0 -76.5 -22.5t-31.5 -59.5q0 -66 138 -66q75 0 113 14zM1338 1q-97 4 -197 18q-131 18 -184 18
q-62 0 -102 -24q-34 -22 -34 -47q0 -33 43 -39l274 -43q43 -6 71 -37q34 -36 32 -89q-7 -198 -228 -272q-150 -49 -459 -49q-468 0 -472 346q-1 125 94 324q33 71 74 71q39 0 39 -40q0 5 -31.5 -82.5t-31.5 -146.5q0 -158 182 -221q108 -37 260 -37q446 0 446 69
q0 24 -56 34l-241 43q-123 22 -123 95q0 123 110 236q132 133 332 133q22 0 105 -5.5t155 -5.5h192q98 0 195 22q120 29 120 75q0 28 -15 47q-118 -19 -192 -19q-100 0 -148 19q-74 31 -74 113q0 130 59 257q73 156 185 156q278 0 278 -536q0 -216 -125 -307
q-106 -77 -331 -77h-189q-6 0 -13 1z" />
    <glyph glyph-name="uniFC43" unicode="&#xfedf;&#xfef0;" horiz-adv-x="1891" arabic-form="isolated" 
d="M1361 0q-108 3 -220 19q-131 18 -184 18q-62 0 -102 -24q-34 -22 -34 -47q0 -33 43 -39l274 -43q43 -6 71 -37q34 -36 32 -89q-7 -198 -228 -272q-150 -49 -459 -49q-468 0 -472 346q-1 125 94 324q33 71 74 71q39 0 39 -40q0 5 -31.5 -82.5t-31.5 -146.5
q0 -158 182 -221q108 -37 260 -37q446 0 446 69q0 24 -56 34l-241 43q-123 22 -123 95q0 123 110 236q132 133 332 133q22 0 105 -5.5t155 -5.5h32q98 0 131 16q42 20 42 85q0 41 -8 101l-84 673l122 119q41 41 50 41q12 0 18 -22q39 -132 88 -246q16 -38 -3 -38
q-16 0 -64 23l16 -455v-226q0 -321 -324 -321h-51z" />
    <glyph glyph-name="uniFC44" unicode="&#xfedf;&#xfef2;" horiz-adv-x="1891" arabic-form="isolated" 
d="M877 -762l-119 -119l-119 119l119 122zM605 -762l-120 -119l-119 119l119 122zM1361 0q-108 3 -220 19q-131 18 -184 18q-62 0 -102 -24q-34 -22 -34 -47q0 -33 43 -39l274 -43q43 -6 71 -37q34 -36 32 -89q-7 -198 -228 -272q-150 -49 -459 -49q-468 0 -472 346
q-1 125 94 324q33 71 74 71q39 0 39 -40q0 5 -31.5 -82.5t-31.5 -146.5q0 -158 182 -221q108 -37 260 -37q446 0 446 69q0 24 -56 34l-241 43q-123 22 -123 95q0 123 110 236q132 133 332 133q22 0 105 -5.5t155 -5.5h32q98 0 131 16q42 20 42 85q0 41 -8 101l-84 673
l122 119q41 41 50 41q12 0 18 -22q39 -132 88 -246q16 -38 -3 -38q-16 0 -64 23l16 -455v-226q0 -321 -324 -321h-51z" />
    <glyph glyph-name="uniFC64" unicode="&#xfe8c;&#xfeae;" horiz-adv-x="1519" arabic-form="final" 
d="M1353 920l-32 -106q-44 -6 -110 -25q-141 -40 -188 -106q-10 18 -10 43q0 56 69 95q-57 36 -57 95q0 60 62 119.5t126 59.5q92 0 92 -73q0 -29 -20 -50q-26 30 -87 30q-105 0 -105 -55q0 -24 33.5 -46t64.5 -22q83 0 162 41zM899 250q152 0 218.5 51.5t66.5 166.5
q0 47 47 47q17 0 30 -15t13 -32q0 -218 226 -218h24q41 0 41 -35v-179q0 -36 -41 -36h-62q-127 0 -233 155q-33 -65 -113 -110t-156 -45h-173q-11 0 -18 3q-68 5 -103 23q7 -27 7 -74q0 -51 -23 -136q-30 -100 -73 -170q-110 -174 -166 -174q-90 0 -242 18q-169 19 -169 38
t89 50q170 59 325 198q147 132 147 208t-177 258l103 234q91 -131 149 -174q69 -50 176 -52h87z" />
    <glyph glyph-name="uniFC67" unicode="&#xfe8c;&#xfee6;" horiz-adv-x="2021" arabic-form="final" 
d="M1853 920l-32 -106q-44 -6 -110 -25q-140 -40 -188 -106q-10 18 -10 43q0 56 69 95q-57 36 -57 95q0 60 62 119.5t126 59.5q92 0 92 -73q0 -29 -19 -50q-27 30 -88 30q-105 0 -105 -55q0 -24 33.5 -46t64.5 -22q83 0 162 41zM734 612l-133 -133l-132 133l132 130zM1266 0
q-57 0 -138 30q14 -72 14 -133q0 -442 -628 -442q-199 0 -311 98q-122 105 -122 313q0 123 84 291q52 103 88 103q35 0 35 -34l-40 -108q-40 -109 -40 -170q0 -123 102 -186q93 -57 250 -57q165 0 297 37q192 54 192 169q0 63 -47 136q-37 59 -158 199l109 230
q151 -226 335 -226h111q152 0 218.5 51.5t66.5 166.5q0 47 47 47q17 0 30 -15t13 -32q0 -218 226 -218h24q41 0 41 -35v-179q0 -36 -41 -36h-62q-127 0 -233 155q-33 -65 -113 -110t-156 -45h-194z" />
    <glyph glyph-name="uniFC6A" unicode="&#xfe92;&#xfeae;" horiz-adv-x="1544" arabic-form="final" 
d="M917 250q153 0 219.5 51.5t66.5 166.5q0 47 46 47q17 0 30 -15t13 -32q0 -218 226 -218h24q41 0 41 -35v-179q0 -36 -41 -36h-62q-127 0 -233 155q-33 -65 -113 -110t-156 -45h-173q-6 0 -11 1q-88 4 -128 25q7 -27 7 -74q0 -51 -23 -136q-30 -100 -73 -170
q-110 -174 -166 -174q-90 0 -242 18q-169 19 -169 38t89 50q170 59 325 198q147 132 147 208t-177 258l103 234q91 -131 149 -174q69 -50 176 -52h105zM1275 -287l-132 -133l-133 133l133 130z" />
    <glyph glyph-name="uniFC70" unicode="&#xfe98;&#xfeae;" horiz-adv-x="1539" arabic-form="final" 
d="M1400 871l-119 -119l-119 119l119 122zM1128 871l-119 -119l-120 119l120 122zM917 250q153 0 219.5 51.5t66.5 166.5q0 47 46 47q17 0 30 -15t13 -32q0 -218 226 -218h24q41 0 41 -35v-179q0 -36 -41 -36h-62q-127 0 -233 155q-33 -65 -113 -110t-156 -45h-173
q-6 0 -11 1q-88 4 -128 25q7 -27 7 -74q0 -51 -23 -136q-30 -100 -73 -170q-110 -174 -166 -174q-90 0 -242 18q-169 19 -169 38t89 50q170 59 325 198q147 132 147 208t-177 258l103 234q91 -131 149 -174q69 -50 176 -52h105z" />
    <glyph glyph-name="uniFC86" unicode="&#xfee0;&#xfef0;" horiz-adv-x="1966" arabic-form="final" 
d="M1362 0q-109 3 -221 19q-131 18 -184 18q-62 0 -102 -24q-34 -22 -34 -47q0 -33 43 -39l274 -43q43 -6 71 -37q34 -36 32 -89q-7 -198 -228 -272q-150 -49 -459 -49q-468 0 -472 346q-1 125 94 324q33 71 74 71q39 0 39 -40q0 5 -31.5 -82.5t-31.5 -146.5
q0 -158 182 -221q108 -37 260 -37q446 0 446 69q0 24 -56 34l-241 43q-123 22 -123 95q0 123 110 236q132 133 332 133q22 0 105 -5.5t155 -5.5h21q218 0 218 131q0 386 -37 753l104 105q56 56 65 56q20 0 25 -312l7 -599q2 -134 166 -134q41 0 41 -35v-179q0 -36 -41 -36
h-32q-89 0 -142 29t-102 105q-57 -88 -129 -115q-50 -18 -163 -19h-35z" />
    <glyph glyph-name="uniFC87" unicode="&#xfee0;&#xfef2;" horiz-adv-x="1966" arabic-form="final" 
d="M877 -762l-119 -119l-119 119l119 122zM605 -762l-120 -119l-119 119l119 122zM1362 0q-109 3 -221 19q-131 18 -184 18q-62 0 -102 -24q-34 -22 -34 -47q0 -33 43 -39l274 -43q43 -6 71 -37q34 -36 32 -89q-7 -198 -228 -272q-150 -49 -459 -49q-468 0 -472 346
q-1 125 94 324q33 71 74 71q39 0 39 -40q0 5 -31.5 -82.5t-31.5 -146.5q0 -158 182 -221q108 -37 260 -37q446 0 446 69q0 24 -56 34l-241 43q-123 22 -123 95q0 123 110 236q132 133 332 133q22 0 105 -5.5t155 -5.5h21q218 0 218 131q0 386 -37 753l104 105q56 56 65 56
q20 0 25 -312l7 -599q2 -134 166 -134q41 0 41 -35v-179q0 -36 -41 -36h-32q-89 0 -142 29t-102 105q-57 -88 -129 -115q-50 -18 -163 -19h-35z" />
    <glyph glyph-name="uniFCCC" unicode="&#xfedf;&#xfee4;" horiz-adv-x="1423" arabic-form="initial" 
d="M627 251q0 78 -39 156q-46 95 -116 95q-73 0 -73 -98q0 -65 41 -146q48 -94 107 -94q80 0 80 87zM885 0q-48 0 -101 38q-49 36 -80 87q-55 -138 -200 -138q-142 0 -227 147q-37 -62 -104 -100q-60 -34 -112 -34h-66q-41 0 -41 36v179q0 35 41 35h59q142 0 142 71
q0 103 54 190q70 112 194 112q187 0 263 -208q61 -165 178 -165h80q98 0 131 16q41 20 41 85q0 41 -7 101l-85 673l122 119q41 41 51 41q11 0 18 -22q39 -132 88 -246q16 -38 -3 -38q-16 0 -64 23l16 -455v-226q0 -321 -324 -321h-64z" />
    <glyph glyph-name="uniFCFB" unicode="&#xfeb3;&#xfef0;" horiz-adv-x="2712" arabic-form="isolated" 
d="M1350 1q-103 3 -209 18q-131 18 -184 18q-62 0 -102 -24q-34 -22 -34 -47q0 -33 43 -39l274 -43q43 -6 71 -37q34 -36 32 -89q-7 -198 -228 -272q-150 -49 -459 -49q-468 0 -472 346q-1 125 94 324q33 71 74 71q39 0 39 -40q0 5 -31.5 -82.5t-31.5 -146.5
q0 -158 182 -221q108 -37 260 -37q446 0 446 69q0 24 -56 34l-241 43q-123 22 -123 95q0 123 110 236q132 133 332 133q22 0 105 -5.5t155 -5.5h61q119 0 183 54q55 49 55 125q0 68 46 68q45 0 45 -68q0 -55 35 -110q46 -69 119 -69q75 0 121 69q36 55 36 110q0 68 45 68
q44 0 44 -68q0 -55 38 -110q48 -69 128 -69q165 0 165 90q0 35 -97 153l110 184q98 -129 98 -313q0 -145 -62 -248q-70 -116 -186 -116q-86 0 -141 40q-39 28 -83 98q-78 -138 -192 -138q-86 0 -139 40q-41 29 -80 98q-62 -72 -128 -102q-77 -36 -200 -36h-57q-5 0 -10 1z
" />
    <glyph glyph-name="uniFCFC" unicode="&#xfeb3;&#xfef2;" horiz-adv-x="2712" arabic-form="isolated" 
d="M877 -762l-119 -119l-119 119l119 122zM605 -762l-120 -119l-119 119l119 122zM1350 1q-103 3 -209 18q-131 18 -184 18q-62 0 -102 -24q-34 -22 -34 -47q0 -33 43 -39l274 -43q43 -6 71 -37q34 -36 32 -89q-7 -198 -228 -272q-150 -49 -459 -49q-468 0 -472 346
q-1 125 94 324q33 71 74 71q39 0 39 -40q0 5 -31.5 -82.5t-31.5 -146.5q0 -158 182 -221q108 -37 260 -37q446 0 446 69q0 24 -56 34l-241 43q-123 22 -123 95q0 123 110 236q132 133 332 133q22 0 105 -5.5t155 -5.5h61q119 0 183 54q55 49 55 125q0 68 46 68q45 0 45 -68
q0 -55 35 -110q46 -69 119 -69q75 0 121 69q36 55 36 110q0 68 45 68q44 0 44 -68q0 -55 38 -110q48 -69 128 -69q165 0 165 90q0 35 -97 153l110 184q98 -129 98 -313q0 -145 -62 -248q-70 -116 -186 -116q-86 0 -141 40q-39 28 -83 98q-78 -138 -192 -138q-86 0 -139 40
q-41 29 -80 98q-62 -72 -128 -102q-77 -36 -200 -36h-57q-5 0 -10 1z" />
    <glyph glyph-name="uniFCFD" unicode="&#xfeb7;&#xfef0;" horiz-adv-x="2712" arabic-form="isolated" 
d="M2282 1109l-120 -121l-120 121l120 121zM2418 871l-120 -119l-119 119l119 122zM1350 1q-103 3 -209 18q-131 18 -184 18q-62 0 -102 -24q-34 -22 -34 -47q0 -33 43 -39l274 -43q43 -6 71 -37q34 -36 32 -89q-7 -198 -228 -272q-150 -49 -459 -49q-468 0 -472 346
q-1 125 94 324q33 71 74 71q39 0 39 -40q0 5 -31.5 -82.5t-31.5 -146.5q0 -158 182 -221q108 -37 260 -37q446 0 446 69q0 24 -56 34l-241 43q-123 22 -123 95q0 123 110 236q132 133 332 133q22 0 105 -5.5t155 -5.5h61q119 0 183 54q55 49 55 125q0 68 46 68q45 0 45 -68
q0 -55 35 -110q46 -69 119 -69q75 0 121 69q36 55 36 110q0 68 45 68q44 0 44 -68q0 -55 38 -110q48 -69 128 -69q165 0 165 90q0 35 -97 153l110 184q98 -129 98 -313q0 -145 -62 -248q-70 -116 -186 -116q-86 0 -141 40q-39 28 -83 98q-78 -138 -192 -138q-86 0 -139 40
q-41 29 -80 98q-62 -72 -128 -102q-77 -36 -200 -36h-57q-5 0 -10 1zM2145 871l-119 -119l-119 119l119 122z" />
    <glyph glyph-name="uniFCFE" unicode="&#xfeb7;&#xfef2;" horiz-adv-x="2712" arabic-form="isolated" 
d="M877 -762l-119 -119l-119 119l119 122zM605 -762l-120 -119l-119 119l119 122zM2282 1109l-120 -121l-120 121l120 121zM2418 871l-120 -119l-119 119l119 122zM1350 1q-103 3 -209 18q-131 18 -184 18q-62 0 -102 -24q-34 -22 -34 -47q0 -33 43 -39l274 -43
q43 -6 71 -37q34 -36 32 -89q-7 -198 -228 -272q-150 -49 -459 -49q-468 0 -472 346q-1 125 94 324q33 71 74 71q39 0 39 -40q0 5 -31.5 -82.5t-31.5 -146.5q0 -158 182 -221q108 -37 260 -37q446 0 446 69q0 24 -56 34l-241 43q-123 22 -123 95q0 123 110 236
q132 133 332 133q22 0 105 -5.5t155 -5.5h61q119 0 183 54q55 49 55 125q0 68 46 68q45 0 45 -68q0 -55 35 -110q46 -69 119 -69q75 0 121 69q36 55 36 110q0 68 45 68q44 0 44 -68q0 -55 38 -110q48 -69 128 -69q165 0 165 90q0 35 -97 153l110 184q98 -129 98 -313
q0 -145 -62 -248q-70 -116 -186 -116q-86 0 -141 40q-39 28 -83 98q-78 -138 -192 -138q-86 0 -139 40q-41 29 -80 98q-62 -72 -128 -102q-77 -36 -200 -36h-57q-5 0 -10 1zM2145 871l-119 -119l-119 119l119 122z" />
    <glyph glyph-name="uniFD05" unicode="&#xfebb;&#xfef0;" horiz-adv-x="2825" arabic-form="isolated" 
d="M2567 351q0 55 -64 98q-59 40 -122 40q-157 0 -349 -235q41 -4 194 -4q341 0 341 101zM1327 2q-92 3 -186 17q-131 18 -184 18q-62 0 -102 -24q-34 -22 -34 -47q0 -33 43 -39l274 -43q43 -6 71 -37q34 -36 32 -89q-7 -198 -228 -272q-150 -49 -459 -49q-468 0 -472 346
q-1 125 94 324q33 71 74 71q39 0 39 -40q0 5 -31.5 -82.5t-31.5 -146.5q0 -158 182 -221q108 -37 260 -37q446 0 446 69q0 24 -56 34l-241 43q-123 22 -123 95q0 123 110 236q132 133 332 133q22 0 105 -5q80 -6 150 -6q142 1 211 69q48 49 48 110q0 68 44 68q45 0 45 -68
q0 -59 34 -104q48 -64 147 -64q329 426 569 426q103 0 164 -63q64 -66 64 -182q0 -130 -102 -253q-153 -189 -471 -189q-183 0 -245 12q-137 27 -197 126q-74 -85 -147 -112q-51 -20 -143 -24q-7 -2 -16 -2h-54q-8 0 -15 2z" />
    <glyph glyph-name="uniFD06" unicode="&#xfebb;&#xfef2;" horiz-adv-x="2825" arabic-form="isolated" 
d="M877 -762l-119 -119l-119 119l119 122zM605 -762l-120 -119l-119 119l119 122zM2567 351q0 55 -64 98q-59 40 -122 40q-157 0 -349 -235q41 -4 194 -4q341 0 341 101zM1327 2q-92 3 -186 17q-131 18 -184 18q-62 0 -102 -24q-34 -22 -34 -47q0 -33 43 -39l274 -43
q43 -6 71 -37q34 -36 32 -89q-7 -198 -228 -272q-150 -49 -459 -49q-468 0 -472 346q-1 125 94 324q33 71 74 71q39 0 39 -40q0 5 -31.5 -82.5t-31.5 -146.5q0 -158 182 -221q108 -37 260 -37q446 0 446 69q0 24 -56 34l-241 43q-123 22 -123 95q0 123 110 236
q132 133 332 133q22 0 105 -5q80 -6 150 -6q142 1 211 69q48 49 48 110q0 68 44 68q45 0 45 -68q0 -59 34 -104q48 -64 147 -64q329 426 569 426q103 0 164 -63q64 -66 64 -182q0 -130 -102 -253q-153 -189 -471 -189q-183 0 -245 12q-137 27 -197 126q-74 -85 -147 -112
q-51 -20 -143 -24q-7 -2 -16 -2h-54q-8 0 -15 2z" />
    <glyph glyph-name="uniFD07" unicode="&#xfebf;&#xfef0;" horiz-adv-x="2825" arabic-form="isolated" 
d="M2403 1006l-132 -133l-133 133l133 130zM2567 351q0 55 -64 98q-59 40 -122 40q-157 0 -349 -235q41 -4 194 -4q341 0 341 101zM1327 2q-92 3 -186 17q-131 18 -184 18q-62 0 -102 -24q-34 -22 -34 -47q0 -33 43 -39l274 -43q43 -6 71 -37q34 -36 32 -89
q-7 -198 -228 -272q-150 -49 -459 -49q-468 0 -472 346q-1 125 94 324q33 71 74 71q39 0 39 -40q0 5 -31.5 -82.5t-31.5 -146.5q0 -158 182 -221q108 -37 260 -37q446 0 446 69q0 24 -56 34l-241 43q-123 22 -123 95q0 123 110 236q132 133 332 133q22 0 105 -5
q80 -6 150 -6q142 1 211 69q48 49 48 110q0 68 44 68q45 0 45 -68q0 -59 34 -104q48 -64 147 -64q329 426 569 426q103 0 164 -63q64 -66 64 -182q0 -130 -102 -253q-153 -189 -471 -189q-183 0 -245 12q-137 27 -197 126q-74 -85 -147 -112q-51 -20 -143 -24q-7 -2 -16 -2
h-54q-8 0 -15 2z" />
    <glyph glyph-name="uniFD08" unicode="&#xfebf;&#xfef2;" horiz-adv-x="2825" arabic-form="isolated" 
d="M877 -762l-119 -119l-119 119l119 122zM605 -762l-120 -119l-119 119l119 122zM2403 1006l-132 -133l-133 133l133 130zM2567 351q0 55 -64 98q-59 40 -122 40q-157 0 -349 -235q41 -4 194 -4q341 0 341 101zM1327 2q-92 3 -186 17q-131 18 -184 18q-62 0 -102 -24
q-34 -22 -34 -47q0 -33 43 -39l274 -43q43 -6 71 -37q34 -36 32 -89q-7 -198 -228 -272q-150 -49 -459 -49q-468 0 -472 346q-1 125 94 324q33 71 74 71q39 0 39 -40q0 5 -31.5 -82.5t-31.5 -146.5q0 -158 182 -221q108 -37 260 -37q446 0 446 69q0 24 -56 34l-241 43
q-123 22 -123 95q0 123 110 236q132 133 332 133q22 0 105 -5q80 -6 150 -6q142 1 211 69q48 49 48 110q0 68 44 68q45 0 45 -68q0 -59 34 -104q48 -64 147 -64q329 426 569 426q103 0 164 -63q64 -66 64 -182q0 -130 -102 -253q-153 -189 -471 -189q-183 0 -245 12
q-137 27 -197 126q-74 -85 -147 -112q-51 -20 -143 -24q-7 -2 -16 -2h-54q-8 0 -15 2z" />
    <glyph glyph-name="uniFD0D" unicode="&#xfeb7;&#xfeae;" horiz-adv-x="2159" arabic-form="isolated" 
d="M1727 1109l-120 -121l-119 121l119 121zM1863 871l-119 -119l-120 119l120 122zM1591 871l-120 -119l-119 119l119 122zM902 250q119 0 183 54q56 49 56 125q0 68 45 68t45 -68q0 -55 35 -110q46 -69 120 -69t120 69q36 55 36 110q0 68 45 68t45 -68q0 -55 37 -110
q48 -69 128 -69q165 0 165 90q0 35 -97 153l110 184q99 -129 99 -313q0 -145 -62 -248q-71 -116 -186 -116q-87 0 -142 40q-39 28 -82 98q-79 -138 -193 -138q-85 0 -139 40q-41 29 -80 98q-62 -72 -128 -102q-77 -36 -199 -36h-58q-6 0 -11 1q-88 4 -128 25q7 -27 7 -74
q0 -51 -23 -136q-30 -100 -73 -170q-110 -174 -166 -174q-90 0 -242 18q-169 19 -169 38t89 50q170 59 325 198q147 132 147 208t-177 258l103 234q91 -131 149 -174q69 -50 176 -52h90z" />
    <glyph glyph-name="uniFD0E" unicode="&#xfeb3;&#xfeae;" horiz-adv-x="2159" arabic-form="isolated" 
d="M902 250q119 0 183 54q56 49 56 125q0 68 45 68t45 -68q0 -55 35 -110q46 -69 120 -69t120 69q36 55 36 110q0 68 45 68t45 -68q0 -55 37 -110q48 -69 128 -69q165 0 165 90q0 35 -97 153l110 184q99 -129 99 -313q0 -145 -62 -248q-71 -116 -186 -116q-87 0 -142 40
q-39 28 -82 98q-79 -138 -193 -138q-85 0 -139 40q-41 29 -80 98q-62 -72 -128 -102q-77 -36 -199 -36h-58q-6 0 -11 1q-88 4 -128 25q7 -27 7 -74q0 -51 -23 -136q-30 -100 -73 -170q-110 -174 -166 -174q-90 0 -242 18q-169 19 -169 38t89 50q170 59 325 198
q147 132 147 208t-177 258l103 234q91 -131 149 -174q69 -50 176 -52h90z" />
    <glyph glyph-name="uniFD0F" unicode="&#xfebb;&#xfeae;" horiz-adv-x="2263" arabic-form="isolated" 
d="M2031 351q0 55 -64 98q-59 40 -122 40q-158 0 -349 -235q41 -4 194 -4q341 0 341 101zM852 250q144 0 213 69q48 49 48 110q0 68 45 68t45 -68q0 -59 33 -104q49 -64 148 -64q329 426 568 426q103 0 164 -63q64 -66 64 -182q0 -130 -101 -253q-153 -189 -472 -189
q-182 0 -244 12q-138 27 -198 126q-74 -85 -146 -112q-61 -22 -176 -25q-5 -1 -9 -1h-29q-6 0 -11 1q-88 4 -128 25q7 -27 7 -74q0 -51 -23 -136q-30 -100 -73 -170q-110 -174 -166 -174q-90 0 -242 18q-169 19 -169 38t89 50q170 59 325 198q147 132 147 208t-177 258
l103 234q91 -131 149 -174q69 -50 176 -52h40z" />
    <glyph glyph-name="uniFD10" unicode="&#xfebf;&#xfeae;" horiz-adv-x="2263" arabic-form="isolated" 
d="M1867 1006l-132 -133l-133 133l133 130zM2031 351q0 55 -64 98q-59 40 -122 40q-158 0 -349 -235q41 -4 194 -4q341 0 341 101zM852 250q144 0 213 69q48 49 48 110q0 68 45 68t45 -68q0 -59 33 -104q49 -64 148 -64q329 426 568 426q103 0 164 -63q64 -66 64 -182
q0 -130 -101 -253q-153 -189 -472 -189q-182 0 -244 12q-138 27 -198 126q-74 -85 -146 -112q-61 -22 -176 -25q-5 -1 -9 -1h-29q-6 0 -11 1q-88 4 -128 25q7 -27 7 -74q0 -51 -23 -136q-30 -100 -73 -170q-110 -174 -166 -174q-90 0 -242 18q-169 19 -169 38t89 50
q170 59 325 198q147 132 147 208t-177 258l103 234q91 -131 149 -174q69 -50 176 -52h40z" />
    <glyph glyph-name="uniFD17" unicode="&#xfeb4;&#xfef0;" horiz-adv-x="2807" arabic-form="final" 
d="M1338 1q-97 4 -197 18q-131 18 -184 18q-62 0 -102 -24q-34 -22 -34 -47q0 -33 43 -39l274 -43q43 -6 71 -37q34 -36 32 -89q-7 -198 -228 -272q-150 -49 -459 -49q-468 0 -472 346q-1 125 94 324q33 71 74 71q39 0 39 -40q0 5 -31.5 -82.5t-31.5 -146.5q0 -158 182 -221
q108 -37 260 -37q446 0 446 69q0 24 -56 34l-241 43q-123 22 -123 95q0 123 110 236q132 133 332 133q22 0 105 -5.5t155 -5.5h52q119 0 183 54q55 49 55 125q0 68 46 68q44 0 44 -68q0 -55 36 -110q46 -69 119 -69q81 0 131 69q37 55 37 110q0 68 45 68q44 0 44 -68
q0 -55 38 -110q46 -69 123 -69q85 0 135 69q39 54 39 110q0 68 44 68q45 0 45 -68q0 -55 45 -110q59 -69 156 -69q42 0 42 -35v-179q0 -36 -42 -36h-24q-134 0 -225 138q-80 -138 -193 -138q-86 0 -141 40q-39 28 -83 98q-78 -138 -192 -138q-86 0 -139 40q-41 29 -81 98
q-62 -72 -127 -102q-78 -36 -200 -36h-57q-6 0 -13 1z" />
    <glyph glyph-name="uniFD18" unicode="&#xfeb4;&#xfef2;" horiz-adv-x="2807" arabic-form="final" 
d="M877 -762l-119 -119l-119 119l119 122zM605 -762l-120 -119l-119 119l119 122zM1338 1q-97 4 -197 18q-131 18 -184 18q-62 0 -102 -24q-34 -22 -34 -47q0 -33 43 -39l274 -43q43 -6 71 -37q34 -36 32 -89q-7 -198 -228 -272q-150 -49 -459 -49q-468 0 -472 346
q-1 125 94 324q33 71 74 71q39 0 39 -40q0 5 -31.5 -82.5t-31.5 -146.5q0 -158 182 -221q108 -37 260 -37q446 0 446 69q0 24 -56 34l-241 43q-123 22 -123 95q0 123 110 236q132 133 332 133q22 0 105 -5.5t155 -5.5h52q119 0 183 54q55 49 55 125q0 68 46 68q44 0 44 -68
q0 -55 36 -110q46 -69 119 -69q81 0 131 69q37 55 37 110q0 68 45 68q44 0 44 -68q0 -55 38 -110q46 -69 123 -69q85 0 135 69q39 54 39 110q0 68 44 68q45 0 45 -68q0 -55 45 -110q59 -69 156 -69q42 0 42 -35v-179q0 -36 -42 -36h-24q-134 0 -225 138q-80 -138 -193 -138
q-86 0 -141 40q-39 28 -83 98q-78 -138 -192 -138q-86 0 -139 40q-41 29 -81 98q-62 -72 -127 -102q-78 -36 -200 -36h-57q-6 0 -13 1z" />
    <glyph glyph-name="uniFD19" unicode="&#xfeb8;&#xfef0;" horiz-adv-x="2807" arabic-form="final" 
d="M2268 1109l-119 -121l-119 121l119 121zM2405 871l-119 -119l-120 119l120 122zM2133 871l-120 -119l-119 119l119 122zM1338 1q-97 4 -197 18q-131 18 -184 18q-62 0 -102 -24q-34 -22 -34 -47q0 -33 43 -39l274 -43q43 -6 71 -37q34 -36 32 -89q-7 -198 -228 -272
q-150 -49 -459 -49q-468 0 -472 346q-1 125 94 324q33 71 74 71q39 0 39 -40q0 5 -31.5 -82.5t-31.5 -146.5q0 -158 182 -221q108 -37 260 -37q446 0 446 69q0 24 -56 34l-241 43q-123 22 -123 95q0 123 110 236q132 133 332 133q22 0 105 -5.5t155 -5.5h52q119 0 183 54
q55 49 55 125q0 68 46 68q44 0 44 -68q0 -55 36 -110q46 -69 119 -69q81 0 131 69q37 55 37 110q0 68 45 68q44 0 44 -68q0 -55 38 -110q46 -69 123 -69q85 0 135 69q39 54 39 110q0 68 44 68q45 0 45 -68q0 -55 45 -110q59 -69 156 -69q42 0 42 -35v-179q0 -36 -42 -36h-24
q-134 0 -225 138q-80 -138 -193 -138q-86 0 -141 40q-39 28 -83 98q-78 -138 -192 -138q-86 0 -139 40q-41 29 -81 98q-62 -72 -127 -102q-78 -36 -200 -36h-57q-6 0 -13 1z" />
    <glyph glyph-name="uniFD1A" unicode="&#xfeb8;&#xfef2;" horiz-adv-x="2807" arabic-form="final" 
d="M877 -762l-119 -119l-119 119l119 122zM605 -762l-120 -119l-119 119l119 122zM2268 1109l-119 -121l-119 121l119 121zM2405 871l-119 -119l-120 119l120 122zM2133 871l-120 -119l-119 119l119 122zM1338 1q-97 4 -197 18q-131 18 -184 18q-62 0 -102 -24
q-34 -22 -34 -47q0 -33 43 -39l274 -43q43 -6 71 -37q34 -36 32 -89q-7 -198 -228 -272q-150 -49 -459 -49q-468 0 -472 346q-1 125 94 324q33 71 74 71q39 0 39 -40q0 5 -31.5 -82.5t-31.5 -146.5q0 -158 182 -221q108 -37 260 -37q446 0 446 69q0 24 -56 34l-241 43
q-123 22 -123 95q0 123 110 236q132 133 332 133q22 0 105 -5.5t155 -5.5h52q119 0 183 54q55 49 55 125q0 68 46 68q44 0 44 -68q0 -55 36 -110q46 -69 119 -69q81 0 131 69q37 55 37 110q0 68 45 68q44 0 44 -68q0 -55 38 -110q46 -69 123 -69q85 0 135 69q39 54 39 110
q0 68 44 68q45 0 45 -68q0 -55 45 -110q59 -69 156 -69q42 0 42 -35v-179q0 -36 -42 -36h-24q-134 0 -225 138q-80 -138 -193 -138q-86 0 -141 40q-39 28 -83 98q-78 -138 -192 -138q-86 0 -139 40q-41 29 -81 98q-62 -72 -127 -102q-78 -36 -200 -36h-57q-6 0 -13 1z" />
    <glyph glyph-name="uniFD21" unicode="&#xfebc;&#xfef0;" horiz-adv-x="2757" arabic-form="final" 
d="M2549 351q0 55 -64 98q-59 40 -122 40q-157 0 -349 -235q38 -4 191 -4q344 0 344 101zM1305 3q-82 3 -164 16q-131 18 -184 18q-62 0 -102 -24q-34 -22 -34 -47q0 -33 43 -39l274 -43q43 -6 71 -37q34 -36 32 -89q-7 -198 -228 -272q-150 -49 -459 -49q-468 0 -472 346
q-1 125 94 324q33 71 74 71q39 0 39 -40q0 5 -31.5 -82.5t-31.5 -146.5q0 -158 182 -221q108 -37 260 -37q446 0 446 69q0 24 -56 34l-241 43q-123 22 -123 95q0 123 110 236q132 133 332 133q22 0 105 -5q74 -5 138 -6q136 1 203 69q50 49 50 110q0 68 44 68q45 0 45 -68
q0 -57 39 -108q52 -67 142 -60q335 426 569 426q103 0 164 -63q63 -66 63 -182q0 -61 -41 -155l-14 -31q61 -5 112 -6q41 0 41 -35v-179q0 -36 -41 -36q-171 0 -233 112q-122 -75 -223 -96q-83 -16 -285 -16q-247 0 -330 138q-74 -85 -147 -112q-45 -17 -120 -22
q-9 -4 -21 -4h-72q-11 0 -19 3z" />
    <glyph glyph-name="uniFD22" unicode="&#xfebc;&#xfef2;" horiz-adv-x="2757" arabic-form="final" 
d="M877 -762l-119 -119l-119 119l119 122zM605 -762l-120 -119l-119 119l119 122zM2549 351q0 55 -64 98q-59 40 -122 40q-157 0 -349 -235q38 -4 191 -4q344 0 344 101zM1305 3q-82 3 -164 16q-131 18 -184 18q-62 0 -102 -24q-34 -22 -34 -47q0 -33 43 -39l274 -43
q43 -6 71 -37q34 -36 32 -89q-7 -198 -228 -272q-150 -49 -459 -49q-468 0 -472 346q-1 125 94 324q33 71 74 71q39 0 39 -40q0 5 -31.5 -82.5t-31.5 -146.5q0 -158 182 -221q108 -37 260 -37q446 0 446 69q0 24 -56 34l-241 43q-123 22 -123 95q0 123 110 236
q132 133 332 133q22 0 105 -5q74 -5 138 -6q136 1 203 69q50 49 50 110q0 68 44 68q45 0 45 -68q0 -57 39 -108q52 -67 142 -60q335 426 569 426q103 0 164 -63q63 -66 63 -182q0 -61 -41 -155l-14 -31q61 -5 112 -6q41 0 41 -35v-179q0 -36 -41 -36q-171 0 -233 112
q-122 -75 -223 -96q-83 -16 -285 -16q-247 0 -330 138q-74 -85 -147 -112q-45 -17 -120 -22q-9 -4 -21 -4h-72q-11 0 -19 3z" />
    <glyph glyph-name="uniFD23" unicode="&#xfec0;&#xfef0;" horiz-adv-x="2757" arabic-form="final" 
d="M2385 1006l-132 -133l-133 133l133 130zM2549 351q0 55 -64 98q-59 40 -122 40q-157 0 -349 -235q38 -4 191 -4q344 0 344 101zM1305 3q-82 3 -164 16q-131 18 -184 18q-62 0 -102 -24q-34 -22 -34 -47q0 -33 43 -39l274 -43q43 -6 71 -37q34 -36 32 -89
q-7 -198 -228 -272q-150 -49 -459 -49q-468 0 -472 346q-1 125 94 324q33 71 74 71q39 0 39 -40q0 5 -31.5 -82.5t-31.5 -146.5q0 -158 182 -221q108 -37 260 -37q446 0 446 69q0 24 -56 34l-241 43q-123 22 -123 95q0 123 110 236q132 133 332 133q22 0 105 -5
q74 -5 138 -6q136 1 203 69q50 49 50 110q0 68 44 68q45 0 45 -68q0 -57 39 -108q52 -67 142 -60q335 426 569 426q103 0 164 -63q63 -66 63 -182q0 -61 -41 -155l-14 -31q61 -5 112 -6q41 0 41 -35v-179q0 -36 -41 -36q-171 0 -233 112q-122 -75 -223 -96q-83 -16 -285 -16
q-247 0 -330 138q-74 -85 -147 -112q-45 -17 -120 -22q-9 -4 -21 -4h-72q-11 0 -19 3z" />
    <glyph glyph-name="uniFD24" unicode="&#xfec0;&#xfef2;" horiz-adv-x="2757" arabic-form="final" 
d="M877 -762l-119 -119l-119 119l119 122zM605 -762l-120 -119l-119 119l119 122zM2385 1006l-132 -133l-133 133l133 130zM2549 351q0 55 -64 98q-59 40 -122 40q-157 0 -349 -235q38 -4 191 -4q344 0 344 101zM1305 3q-82 3 -164 16q-131 18 -184 18q-62 0 -102 -24
q-34 -22 -34 -47q0 -33 43 -39l274 -43q43 -6 71 -37q34 -36 32 -89q-7 -198 -228 -272q-150 -49 -459 -49q-468 0 -472 346q-1 125 94 324q33 71 74 71q39 0 39 -40q0 5 -31.5 -82.5t-31.5 -146.5q0 -158 182 -221q108 -37 260 -37q446 0 446 69q0 24 -56 34l-241 43
q-123 22 -123 95q0 123 110 236q132 133 332 133q22 0 105 -5q74 -5 138 -6q136 1 203 69q50 49 50 110q0 68 44 68q45 0 45 -68q0 -57 39 -108q52 -67 142 -60q335 426 569 426q103 0 164 -63q63 -66 63 -182q0 -61 -41 -155l-14 -31q61 -5 112 -6q41 0 41 -35v-179
q0 -36 -41 -36q-171 0 -233 112q-122 -75 -223 -96q-83 -16 -285 -16q-247 0 -330 138q-74 -85 -147 -112q-45 -17 -120 -22q-9 -4 -21 -4h-72q-11 0 -19 3z" />
    <glyph glyph-name="uniFD29" unicode="&#xfeb8;&#xfeae;" horiz-adv-x="2263" arabic-form="final" 
d="M1723 1109l-120 -121l-119 121l119 121zM1859 871l-119 -119l-119 119l119 122zM1587 871l-119 -119l-120 119l120 122zM902 250q119 0 183 54q56 49 56 125q0 68 45 68t45 -68q0 -55 35 -110q46 -69 120 -69q81 0 130 69q37 55 37 110q0 68 45 68t45 -68q0 -55 37 -110
q46 -69 124 -69q85 0 135 69q38 54 38 110q0 68 45 68q44 0 44 -68q0 -55 46 -110q58 -69 156 -69q41 0 41 -35v-179q0 -36 -41 -36h-24q-135 0 -226 138q-79 -138 -192 -138q-87 0 -142 40q-39 28 -82 98q-79 -138 -193 -138q-85 0 -139 40q-41 29 -80 98
q-62 -72 -128 -102q-77 -36 -199 -36h-58q-6 0 -11 1q-88 4 -128 25q7 -27 7 -74q0 -51 -23 -136q-30 -100 -73 -170q-110 -174 -166 -174q-90 0 -242 18q-169 19 -169 38t89 50q170 59 325 198q147 132 147 208t-177 258l103 234q91 -131 149 -174q69 -50 176 -52h90z" />
    <glyph glyph-name="uniFD2A" unicode="&#xfeb4;&#xfeae;" horiz-adv-x="2263" arabic-form="final" 
d="M902 250q119 0 183 54q56 49 56 125q0 68 45 68t45 -68q0 -55 35 -110q46 -69 120 -69q81 0 130 69q37 55 37 110q0 68 45 68t45 -68q0 -55 37 -110q46 -69 124 -69q85 0 135 69q38 54 38 110q0 68 45 68q44 0 44 -68q0 -55 46 -110q58 -69 156 -69q41 0 41 -35v-179
q0 -36 -41 -36h-24q-135 0 -226 138q-79 -138 -192 -138q-87 0 -142 40q-39 28 -82 98q-79 -138 -193 -138q-85 0 -139 40q-41 29 -80 98q-62 -72 -128 -102q-77 -36 -199 -36h-58q-6 0 -11 1q-88 4 -128 25q7 -27 7 -74q0 -51 -23 -136q-30 -100 -73 -170
q-110 -174 -166 -174q-90 0 -242 18q-169 19 -169 38t89 50q170 59 325 198q147 132 147 208t-177 258l103 234q91 -131 149 -174q69 -50 176 -52h90z" />
    <glyph glyph-name="uniFD2B" unicode="&#xfebc;&#xfeae;" horiz-adv-x="2218" arabic-form="final" 
d="M2012 351q0 55 -63 98q-60 40 -122 40q-158 0 -349 -235q37 -4 190 -4q344 0 344 101zM840 250q138 1 206 69q49 49 49 110q0 68 45 68q44 0 44 -68q0 -57 40 -108q51 -67 142 -60q334 426 568 426q103 0 164 -63q64 -66 64 -182q0 -61 -41 -155l-15 -31q61 -5 112 -6
q41 0 41 -35v-179q0 -36 -41 -36q-171 0 -233 112q-122 -75 -222 -96q-83 -16 -285 -16q-247 0 -331 138q-74 -85 -147 -112q-53 -21 -152 -25q-6 -1 -14 -1h-47q-11 0 -18 3q-68 5 -103 23q7 -27 7 -74q0 -51 -23 -136q-30 -100 -73 -170q-110 -174 -166 -174
q-90 0 -242 18q-169 19 -169 38t89 50q170 59 325 198q147 132 147 208t-177 258l103 234q91 -131 149 -174q69 -50 176 -52h28z" />
    <glyph glyph-name="uniFD2C" unicode="&#xfec0;&#xfeae;" horiz-adv-x="2218" arabic-form="final" 
d="M2012 351q0 55 -63 98q-60 40 -122 40q-158 0 -349 -235q37 -4 190 -4q344 0 344 101zM840 250q138 1 206 69q49 49 49 110q0 68 45 68q44 0 44 -68q0 -57 40 -108q51 -67 142 -60q334 426 568 426q103 0 164 -63q64 -66 64 -182q0 -61 -41 -155l-15 -31q61 -5 112 -6
q41 0 41 -35v-179q0 -36 -41 -36q-171 0 -233 112q-122 -75 -222 -96q-83 -16 -285 -16q-247 0 -331 138q-74 -85 -147 -112q-53 -21 -152 -25q-6 -1 -14 -1h-47q-11 0 -18 3q-68 5 -103 23q7 -27 7 -74q0 -51 -23 -136q-30 -100 -73 -170q-110 -174 -166 -174
q-90 0 -242 18q-169 19 -169 38t89 50q170 59 325 198q147 132 147 208t-177 258l103 234q91 -131 149 -174q69 -50 176 -52h28zM1848 1006l-132 -133l-133 133l133 130z" />
    <glyph glyph-name="uniFEF5" unicode="&#xfedf;&#xfe82;" horiz-adv-x="1244" arabic-form="isolated" 
d="M1149 990q-1 -2 -2 -3q-9 -3 -67 15q-14 -410 -208 -630q71 -129 71 -196q0 -85 -45 -146q-58 -76 -167 -78l-351 -8l71 239q90 65 263 181q-128 135 -382 405l-34 -78l-51 80q-111 178 -111 194q0 72 61 218q398 -419 611 -704q87 107 87 294q0 159 -32 352
q172 160 180 160q9 0 48 -103.5t55 -163.5q3 -12 3 -28zM840 179q0 27 -68 97q-63 -56 -172 -127v-5l105 -2q135 -3 135 37zM581 1422q4 -43 -93.5 -105.5t-204.5 -70.5q-39 -3 -94 8.5t-68 11.5q-18 -1 -33.5 -30t-33.5 -30q-30 -2 -34 42q-4 31 30.5 104t65.5 76
q15 -3 88 -23t163 -16q78 4 128.5 28.5t59.5 27.5q22 1 26 -23z" />
    <glyph glyph-name="uniFEF6" unicode="&#xfee0;&#xfe82;" horiz-adv-x="1347" arabic-form="final" 
d="M1393 36q0 -36 -41 -36h-21q-278 0 -290 271l-12 235h-6q-73 -200 -163 -357q-61 -104 -92 -136q-23 -23 -56 -31.5t-212 -21.5q-161 -12 -196 -12q-60 0 -60 15q0 17 108 62q211 86 422 285q-49 193 -394 472l-19 -75q-129 119 -169 173q-29 37 -29 71q0 99 34 221
l280 -228q165 -133 245 -252q83 -122 125 -295q156 194 155 480l-2 266q149 142 160 142q7 0 7 -14l23 -913q3 -108 153 -108h9q41 0 41 -35v-179zM599 1422q4 -43 -93.5 -105.5t-204.5 -70.5q-39 -3 -94 8.5t-68 11.5q-18 -1 -33.5 -30t-33.5 -30q-30 -2 -34 42
q-4 31 30.5 104t65.5 76q15 -3 88 -23t163 -16q78 4 128.5 28.5t59.5 27.5q22 1 26 -23z" />
    <glyph glyph-name="uniFEF7" unicode="&#xfedf;&#xfe84;" horiz-adv-x="1158" arabic-form="isolated" 
d="M384 1481l-32 -97q-81 -27 -217 -86q-54 -32 -66 -64q-16 17 -16 53q0 48 47 82q-54 25 -54 79q0 52 43 106q52 67 131 67q72 0 72 -52q0 -38 -54 -71q-17 32 -71 32q-44 0 -44 -27q0 -22 29.5 -46t61.5 -24t170 48zM1085 990q0 -2 -2 -3q-8 -3 -67 15
q-14 -410 -207 -630q71 -129 71 -196q0 -85 -46 -146q-57 -76 -167 -78l-350 -8l71 239q89 65 262 181q-128 135 -382 405l-33 -78l-51 80q-112 178 -112 194q0 72 61 218q399 -419 611 -704q87 107 87 294q0 159 -32 352q173 160 180 160q9 0 48 -103.5t55 -163.5
q3 -12 3 -28zM776 179q0 27 -68 97q-63 -56 -172 -127v-5l105 -2q135 -3 135 37z" />
    <glyph glyph-name="uniFEF8" unicode="&#xfee0;&#xfe84;" horiz-adv-x="1260" arabic-form="final" 
d="M366 1481l-31 -97q-81 -27 -217 -86q-54 -32 -67 -64q-15 17 -15 53q0 48 47 82q-54 25 -54 79q0 52 43 106q52 67 130 67q73 0 73 -52q0 -38 -54 -71q-17 32 -71 32q-44 0 -44 -27q0 -22 29.5 -46t61.5 -24t169 48zM1307 36q0 -36 -41 -36h-21q-278 0 -290 271l-12 235
h-6q-73 -200 -163 -357q-61 -104 -92 -136q-23 -23 -56 -31.5t-212 -21.5q-161 -12 -196 -12q-61 0 -61 15q0 17 109 62q211 86 422 285q-49 193 -394 472l-19 -75q-129 119 -169 173q-29 37 -29 71q0 99 34 221l280 -228q165 -133 245 -252q83 -122 125 -295
q156 194 154 480l-1 266q149 142 160 142q7 0 7 -14l23 -913q3 -108 153 -108h9q41 0 41 -35v-179z" />
    <glyph glyph-name="uniFEF9" unicode="&#xfedf;&#xfe88;" horiz-adv-x="1244" arabic-form="isolated" 
d="M1149 990q-1 -2 -3 -3q-8 -3 -66 15q-15 -410 -208 -630q71 -129 71 -196q0 -85 -45 -146q-58 -76 -167 -78l-351 -8l71 239q89 65 263 181q-128 135 -382 405l-34 -78l-51 80q-111 178 -111 194q0 72 61 218q398 -419 610 -704q88 107 88 294q0 159 -32 352
q172 160 179 160q10 0 49 -103.5t54 -163.5q4 -12 4 -28zM578 -265l-32 -97q-81 -27 -217 -86q-55 -32 -66 -65q-16 17 -16 54q0 47 48 82q-55 24 -55 78q0 52 43 107q52 67 131 67q73 0 73 -53q0 -37 -55 -70q-17 31 -71 31q-45 0 -45 -25q0 -23 30 -47t62 -24t170 48z
M839 179q0 27 -67 97q-63 -56 -172 -127v-5l104 -2q135 -3 135 37z" />
    <glyph glyph-name="uniFEFA" unicode="&#xfee0;&#xfe88;" horiz-adv-x="1347" arabic-form="final" 
d="M1393 36q0 -36 -41 -36h-21q-278 0 -290 271l-12 235h-6q-72 -200 -163 -357q-61 -104 -92 -136q-23 -23 -56 -31.5t-212 -21.5q-161 -12 -196 -12q-60 0 -60 15q0 17 108 62q211 86 422 285q-48 193 -394 472l-19 -75q-129 119 -169 173q-29 37 -29 71q0 99 34 221
l280 -228q165 -133 245 -252q83 -122 125 -295q156 194 155 480l-2 266q149 142 160 142q7 0 7 -14l23 -913q3 -108 153 -108h9q41 0 41 -35v-179zM484 -265l-31 -97q-81 -27 -217 -86q-54 -32 -67 -65q-15 17 -15 54q0 47 47 82q-54 24 -54 78q0 52 43 107q52 67 130 67
q73 0 73 -53q0 -37 -54 -70q-17 31 -71 31q-44 0 -44 -25q0 -23 29.5 -47t61.5 -24t169 48z" />
    <glyph glyph-name="uniFEFB" unicode="&#xfedf;&#xfe8e;" horiz-adv-x="1158" arabic-form="isolated" 
d="M1085 990q-1 -2 -3 -3q-8 -3 -66 15q-15 -410 -208 -630q71 -129 71 -196q0 -85 -45 -146q-58 -76 -167 -78l-351 -8l71 239q89 65 263 181q-128 135 -382 405l-34 -78l-51 80q-111 178 -111 194q0 72 61 218q398 -419 610 -704q88 107 88 294q0 159 -32 352
q172 160 179 160q10 0 49 -103.5t54 -163.5q4 -12 4 -28zM775 179q0 27 -67 97q-63 -56 -172 -127v-5l104 -2q135 -3 135 37z" />
    <glyph glyph-name="uniFEFC" unicode="&#xfee0;&#xfe8e;" horiz-adv-x="1260" arabic-form="final" 
d="M1307 36q0 -36 -41 -36h-21q-278 0 -291 271l-12 235h-5q-73 -200 -163 -357q-61 -104 -92 -136q-24 -23 -56.5 -31.5t-211.5 -21.5q-161 -12 -197 -12q-60 0 -60 15q0 17 109 62q211 86 421 285q-48 193 -393 472l-19 -75q-130 119 -170 173q-28 37 -28 71q0 99 34 221
l279 -228q165 -133 245 -252q83 -122 125 -295q157 194 155 480l-2 266q150 142 161 142q7 0 7 -14l23 -913q2 -108 153 -108h9q41 0 41 -35v-179z" />
    <glyph glyph-name="uniFE8B_uniFEE4.liga" unicode="&#xfe8b;&#xfee4;" horiz-adv-x="1439" 
d="M1362 1057l-31 -107q-44 -5 -111 -24q-140 -40 -187 -106q-10 18 -10 43q0 55 69 94q-58 37 -58 96t62 119t126 60q92 0 92 -73q0 -29 -19 -50q-26 30 -87 30q-105 0 -105 -55q0 -24 33 -46t64 -22q83 0 162 41zM627 251q0 78 -39 156q-46 95 -116 95q-73 0 -73 -98
q0 -65 41 -146q48 -94 107 -94q80 0 80 87zM885 0q-48 0 -101 38q-49 36 -80 87q-55 -138 -200 -138q-142 0 -227 147q-37 -62 -104 -100q-60 -34 -112 -34h-66q-41 0 -41 36v179q0 35 41 35h59q142 0 142 71q0 103 54 190q70 112 194 112q187 0 263 -208q61 -165 178 -165
h21q310 0 310 65q0 39 -118 182l132 203q112 -128 112 -314q0 -386 -349 -386h-108z" />
    <glyph glyph-name="uniFE8B_uniFEF0.liga" unicode="&#xfe8b;&#xfef0;" horiz-adv-x="1895" 
d="M1826 1057l-32 -107q-44 -5 -110 -24q-141 -40 -188 -106q-10 18 -10 43q0 55 69 94q-57 37 -57 96t62 119t125 60q92 0 92 -73q0 -29 -19 -50q-26 30 -87 30q-105 0 -105 -55q0 -24 33 -46t64 -22q83 0 163 41zM1361 0q-108 3 -220 19q-131 18 -184 18q-62 0 -102 -24
q-34 -22 -34 -47q0 -33 43 -39l274 -43q43 -6 71 -37q34 -36 32 -89q-7 -198 -228 -272q-150 -49 -459 -49q-468 0 -472 346q-1 125 94 324q33 71 74 71q39 0 39 -40q0 5 -31.5 -82.5t-31.5 -146.5q0 -158 182 -221q108 -37 260 -37q446 0 446 69q0 24 -56 34l-241 43
q-123 22 -123 95q0 123 110 236q132 133 332 133q22 0 105 -5q76 -5 143 -6q295 1 295 65q0 39 -118 182l133 203q112 -128 112 -314q0 -386 -349 -386h-96z" />
    <glyph glyph-name="uniFE8B_uniFEF2.liga" unicode="&#xfe8b;&#xfef2;" horiz-adv-x="1895" 
d="M877 -762l-119 -119l-119 119l119 122zM605 -762l-120 -119l-119 119l119 122zM1826 1057l-32 -107q-44 -5 -110 -24q-141 -40 -188 -106q-10 18 -10 43q0 55 69 94q-57 37 -57 96t62 119t125 60q92 0 92 -73q0 -29 -19 -50q-26 30 -87 30q-105 0 -105 -55q0 -24 33 -46
t64 -22q83 0 163 41zM1361 0q-108 3 -220 19q-131 18 -184 18q-62 0 -102 -24q-34 -22 -34 -47q0 -33 43 -39l274 -43q43 -6 71 -37q34 -36 32 -89q-7 -198 -228 -272q-150 -49 -459 -49q-468 0 -472 346q-1 125 94 324q33 71 74 71q39 0 39 -40q0 5 -31.5 -82.5
t-31.5 -146.5q0 -158 182 -221q108 -37 260 -37q446 0 446 69q0 24 -56 34l-241 43q-123 22 -123 95q0 123 110 236q132 133 332 133q22 0 105 -5q76 -5 143 -6q295 1 295 65q0 39 -118 182l133 203q112 -128 112 -314q0 -386 -349 -386h-96z" />
    <glyph glyph-name="uniFE91_uniFEE4.liga" unicode="&#xfe91;&#xfee4;" horiz-adv-x="1435" 
d="M1337 -287l-132 -133l-133 133l133 130zM627 251q0 78 -39 156q-46 95 -116 95q-73 0 -73 -98q0 -65 41 -146q48 -94 107 -94q80 0 80 87zM885 0q-48 0 -101 38q-49 36 -80 87q-55 -138 -200 -138q-142 0 -227 147q-37 -62 -104 -100q-60 -34 -112 -34h-66q-41 0 -41 36
v179q0 35 41 35h59q142 0 142 71q0 103 54 190q70 112 194 112q187 0 263 -208q61 -165 178 -165h21q310 0 310 65q0 39 -118 182l132 203q112 -128 112 -314q0 -386 -349 -386h-108z" />
    <glyph glyph-name="uniFE92_uniFEE6.liga" unicode="&#xfe92;&#xfee6;" horiz-adv-x="2017" 
d="M734 612l-133 -133l-132 133l132 130zM1748 -287l-132 -133l-133 133l133 130zM1266 0q-57 0 -138 30q14 -72 14 -133q0 -442 -628 -442q-199 0 -311 98q-122 105 -122 313q0 123 84 291q52 103 88 103q35 0 35 -34l-40 -108q-40 -109 -40 -170q0 -123 102 -186
q93 -57 250 -57q165 0 297 37q192 54 192 169q0 63 -47 136q-37 59 -158 199l109 230q151 -226 335 -226h102q152 0 218.5 51.5t66.5 166.5q0 47 47 47q17 0 30 -15t13 -32q0 -218 226 -218h24q41 0 41 -35v-179q0 -36 -41 -36h-62q-127 0 -233 155q-33 -65 -113 -110
t-156 -45h-185z" />
    <glyph glyph-name="uniFE91_uniFEF0.liga" unicode="&#xfe91;&#xfef0;" horiz-adv-x="1883" 
d="M1338 1q-97 4 -197 18q-131 18 -184 18q-62 0 -102 -24q-34 -22 -34 -47q0 -33 43 -39l274 -43q43 -6 71 -37q34 -36 32 -89q-7 -198 -228 -272q-150 -49 -459 -49q-468 0 -472 346q-1 125 94 324q33 71 74 71q39 0 39 -40q0 5 -31.5 -82.5t-31.5 -146.5q0 -158 182 -221
q108 -37 260 -37q446 0 446 69q0 24 -56 34l-241 43q-123 22 -123 95q0 123 110 236q132 133 332 133q22 0 105 -5q72 -5 135 -6q285 2 285 65q0 39 -118 182l132 203q112 -128 112 -314q0 -386 -349 -386h-87q-6 0 -13 1zM1782 -287l-132 -133l-133 133l133 130z" />
    <glyph glyph-name="uniFE91_uniFEF2.liga" unicode="&#xfe91;&#xfef2;" horiz-adv-x="1883" 
d="M877 -762l-119 -119l-119 119l119 122zM605 -762l-120 -119l-119 119l119 122zM1338 1q-97 4 -197 18q-131 18 -184 18q-62 0 -102 -24q-34 -22 -34 -47q0 -33 43 -39l274 -43q43 -6 71 -37q34 -36 32 -89q-7 -198 -228 -272q-150 -49 -459 -49q-468 0 -472 346
q-1 125 94 324q33 71 74 71q39 0 39 -40q0 5 -31.5 -82.5t-31.5 -146.5q0 -158 182 -221q108 -37 260 -37q446 0 446 69q0 24 -56 34l-241 43q-123 22 -123 95q0 123 110 236q132 133 332 133q22 0 105 -5q72 -5 135 -6q285 2 285 65q0 39 -118 182l132 203
q112 -128 112 -314q0 -386 -349 -386h-87q-6 0 -13 1zM1782 -287l-132 -133l-133 133l133 130z" />
    <glyph glyph-name="uniFE97_uniFEE4.liga" unicode="&#xfe97;&#xfee4;" horiz-adv-x="1519" 
d="M1475 927l-120 -119l-119 119l119 122zM1202 927l-119 -119l-120 119l120 122zM627 251q0 78 -39 156q-46 95 -116 95q-73 0 -73 -98q0 -65 41 -146q48 -94 107 -94q80 0 80 87zM885 0q-48 0 -101 38q-49 36 -80 87q-55 -138 -200 -138q-142 0 -227 147
q-37 -62 -104 -100q-60 -34 -112 -34h-66q-41 0 -41 36v179q0 35 41 35h59q142 0 142 71q0 103 54 190q70 112 194 112q187 0 263 -208q61 -165 178 -165h21q310 0 310 65q0 39 -118 182l132 203q112 -128 112 -314q0 -386 -349 -386h-108z" />
    <glyph glyph-name="uniFE98_uniFEE6.liga" unicode="&#xfe98;&#xfee6;" horiz-adv-x="2017" 
d="M734 612l-133 -133l-132 133l132 130zM1873 871l-119 -119l-120 119l120 122zM1601 871l-120 -119l-119 119l119 122zM1266 0q-57 0 -138 30q14 -72 14 -133q0 -442 -628 -442q-199 0 -311 98q-122 105 -122 313q0 123 84 291q52 103 88 103q35 0 35 -34l-40 -108
q-40 -109 -40 -170q0 -123 102 -186q93 -57 250 -57q165 0 297 37q192 54 192 169q0 63 -47 136q-37 59 -158 199l109 230q151 -226 335 -226h102q152 0 218.5 51.5t66.5 166.5q0 47 47 47q17 0 30 -15t13 -32q0 -218 226 -218h24q41 0 41 -35v-179q0 -36 -41 -36h-62
q-127 0 -233 155q-33 -65 -113 -110t-156 -45h-185z" />
    <glyph glyph-name="uniFE97_uniFEF0.liga" unicode="&#xfe97;&#xfef0;" horiz-adv-x="1962" 
d="M1910 927l-119 -119l-119 119l119 122zM1638 927l-119 -119l-120 119l120 122zM1327 2q-92 3 -186 17q-131 18 -184 18q-62 0 -102 -24q-34 -22 -34 -47q0 -33 43 -39l274 -43q43 -6 71 -37q34 -36 32 -89q-7 -198 -228 -272q-150 -49 -459 -49q-468 0 -472 346
q-1 125 94 324q33 71 74 71q39 0 39 -40q0 5 -31.5 -82.5t-31.5 -146.5q0 -158 182 -221q108 -37 260 -37q446 0 446 69q0 24 -56 34l-241 43q-123 22 -123 95q0 123 110 236q132 133 332 133q22 0 105 -5q69 -5 131 -6q280 3 280 65q0 39 -118 182l132 203
q112 -128 112 -314q0 -386 -349 -386h-87q-8 0 -15 2z" />
    <glyph glyph-name="uniFE97_uniFEF2.liga" unicode="&#xfe97;&#xfef2;" horiz-adv-x="1962" 
d="M877 -762l-119 -119l-119 119l119 122zM605 -762l-120 -119l-119 119l119 122zM1910 927l-119 -119l-119 119l119 122zM1638 927l-119 -119l-120 119l120 122zM1327 2q-92 3 -186 17q-131 18 -184 18q-62 0 -102 -24q-34 -22 -34 -47q0 -33 43 -39l274 -43q43 -6 71 -37
q34 -36 32 -89q-7 -198 -228 -272q-150 -49 -459 -49q-468 0 -472 346q-1 125 94 324q33 71 74 71q39 0 39 -40q0 5 -31.5 -82.5t-31.5 -146.5q0 -158 182 -221q108 -37 260 -37q446 0 446 69q0 24 -56 34l-241 43q-123 22 -123 95q0 123 110 236q132 133 332 133
q22 0 105 -5q69 -5 131 -6q280 3 280 65q0 39 -118 182l132 203q112 -128 112 -314q0 -386 -349 -386h-87q-8 0 -15 2z" />
    <glyph glyph-name="uniFE9C_uniFEAE.liga" unicode="&#xfe9c;&#xfeae;" horiz-adv-x="1539" 
d="M1265 1109l-120 -121l-119 121l119 121zM1400 871l-119 -119l-119 119l119 122zM1128 871l-119 -119l-120 119l120 122zM917 250q153 0 219.5 51.5t66.5 166.5q0 47 46 47q17 0 30 -15t13 -32q0 -218 226 -218h24q41 0 41 -35v-179q0 -36 -41 -36h-62q-127 0 -233 155
q-33 -65 -113 -110t-156 -45h-173q-6 0 -11 1q-88 4 -128 25q7 -27 7 -74q0 -51 -23 -136q-30 -100 -73 -170q-110 -174 -166 -174q-90 0 -242 18q-169 19 -169 38t89 50q170 59 325 198q147 132 147 208t-177 258l103 234q91 -131 149 -174q69 -50 176 -52h105z" />
    <glyph glyph-name="uniFE9B_uniFEE4.liga" unicode="&#xfe9b;&#xfee4;" horiz-adv-x="1519" 
d="M1339 1164l-120 -119l-119 119l119 121zM1475 927l-120 -119l-119 119l119 122zM1202 927l-119 -119l-120 119l120 122zM627 251q0 78 -39 156q-46 95 -116 95q-73 0 -73 -98q0 -65 41 -146q48 -94 107 -94q80 0 80 87zM885 0q-48 0 -101 38q-49 36 -80 87
q-55 -138 -200 -138q-142 0 -227 147q-37 -62 -104 -100q-60 -34 -112 -34h-66q-41 0 -41 36v179q0 35 41 35h59q142 0 142 71q0 103 54 190q70 112 194 112q187 0 263 -208q61 -165 178 -165h21q310 0 310 65q0 39 -118 182l132 203q112 -128 112 -314q0 -386 -349 -386
h-108z" />
    <glyph glyph-name="uniFE9C_uniFEE6.liga" unicode="&#xfe9c;&#xfee6;" horiz-adv-x="2017" 
d="M734 612l-133 -133l-132 133l132 130zM1737 1109l-119 -121l-119 121l119 121zM1873 871l-119 -119l-120 119l120 122zM1601 871l-120 -119l-119 119l119 122zM1266 0q-57 0 -138 30q14 -72 14 -133q0 -442 -628 -442q-199 0 -311 98q-122 105 -122 313q0 123 84 291
q52 103 88 103q35 0 35 -34l-40 -108q-40 -109 -40 -170q0 -123 102 -186q93 -57 250 -57q165 0 297 37q192 54 192 169q0 63 -47 136q-37 59 -158 199l109 230q151 -226 335 -226h102q152 0 218.5 51.5t66.5 166.5q0 47 47 47q17 0 30 -15t13 -32q0 -218 226 -218h24
q41 0 41 -35v-179q0 -36 -41 -36h-62q-127 0 -233 155q-33 -65 -113 -110t-156 -45h-185z" />
    <glyph glyph-name="uniFE9B_uniFEF0.liga" unicode="&#xfe9b;&#xfef0;" horiz-adv-x="1962" 
d="M1775 1164l-120 -119l-119 119l119 121zM1910 927l-119 -119l-119 119l119 122zM1638 927l-119 -119l-120 119l120 122zM1327 2q-92 3 -186 17q-131 18 -184 18q-62 0 -102 -24q-34 -22 -34 -47q0 -33 43 -39l274 -43q43 -6 71 -37q34 -36 32 -89q-7 -198 -228 -272
q-150 -49 -459 -49q-468 0 -472 346q-1 125 94 324q33 71 74 71q39 0 39 -40q0 5 -31.5 -82.5t-31.5 -146.5q0 -158 182 -221q108 -37 260 -37q446 0 446 69q0 24 -56 34l-241 43q-123 22 -123 95q0 123 110 236q132 133 332 133q22 0 105 -5q69 -5 131 -6q280 3 280 65
q0 39 -118 182l132 203q112 -128 112 -314q0 -386 -349 -386h-87q-8 0 -15 2z" />
    <glyph glyph-name="uniFE9B_uniFEF2.liga" unicode="&#xfe9b;&#xfef2;" horiz-adv-x="1962" 
d="M877 -762l-119 -119l-119 119l119 122zM605 -762l-120 -119l-119 119l119 122zM1775 1164l-120 -119l-119 119l119 121zM1910 927l-119 -119l-119 119l119 122zM1638 927l-119 -119l-120 119l120 122zM1327 2q-92 3 -186 17q-131 18 -184 18q-62 0 -102 -24
q-34 -22 -34 -47q0 -33 43 -39l274 -43q43 -6 71 -37q34 -36 32 -89q-7 -198 -228 -272q-150 -49 -459 -49q-468 0 -472 346q-1 125 94 324q33 71 74 71q39 0 39 -40q0 5 -31.5 -82.5t-31.5 -146.5q0 -158 182 -221q108 -37 260 -37q446 0 446 69q0 24 -56 34l-241 43
q-123 22 -123 95q0 123 110 236q132 133 332 133q22 0 105 -5q69 -5 131 -6q280 3 280 65q0 39 -118 182l132 203q112 -128 112 -314q0 -386 -349 -386h-87q-8 0 -15 2z" />
    <glyph glyph-name="uniFEDB_uniFEF0.liga" unicode="&#xfedb;&#xfef0;" horiz-adv-x="2255" 
d="M1350 1q-103 3 -209 18q-131 18 -184 18q-62 0 -102 -24q-34 -22 -34 -47q0 -33 43 -39l274 -43q43 -6 71 -37q34 -36 32 -89q-7 -198 -228 -272q-150 -49 -459 -49q-468 0 -472 346q-1 125 94 324q33 71 74 71q39 0 39 -40q0 5 -31.5 -82.5t-31.5 -146.5
q0 -158 182 -221q108 -37 260 -37q446 0 446 69q0 24 -56 34l-241 43q-123 22 -123 95q0 123 110 236q132 133 332 133q22 0 105 -5.5t155 -5.5h52q99 0 192 21q125 28 125 80q0 103 -348 391l48 256l248 103q241 100 493 184l-72 -236q-172 -60 -526 -189v-11
q148 -144 201 -239q62 -110 62 -259q0 -177 -127 -271q-110 -80 -274 -80h-110q-5 0 -10 1z" />
    <glyph glyph-name="uniFEDC_uniFEF0.liga" unicode="&#xfedc;&#xfef0;" horiz-adv-x="2410" 
d="M1350 1q-103 3 -209 18q-131 18 -184 18q-62 0 -102 -24q-34 -22 -34 -47q0 -33 43 -39l274 -43q43 -6 71 -37q34 -36 32 -89q-7 -198 -228 -272q-150 -49 -459 -49q-468 0 -472 346q-1 125 94 324q33 71 74 71q39 0 39 -40q0 5 -31.5 -82.5t-31.5 -146.5
q0 -158 182 -221q108 -37 260 -37q446 0 446 69q0 24 -56 34l-241 43q-123 22 -123 95q0 123 110 236q132 133 332 133q22 0 105 -5.5t155 -5.5h66q79 0 173 20q128 27 128 73q2 116 -340 399l47 256q121 56 344 141q276 105 434 146l-65 -235q-296 -83 -570 -190v-9
l306 -315q277 -286 441 -286h49q41 0 41 -35v-179q0 -36 -41 -36h-75q-152 0 -390 250l-75 78q-7 -170 -139 -258q-107 -70 -260 -70h-110q-5 0 -10 1z" />
    <glyph glyph-name="uniFEDB_uniFEF2.liga" unicode="&#xfedb;&#xfef2;" horiz-adv-x="2255" 
d="M877 -762l-119 -119l-119 119l119 122zM605 -762l-120 -119l-119 119l119 122zM1350 1q-103 3 -209 18q-131 18 -184 18q-62 0 -102 -24q-34 -22 -34 -47q0 -33 43 -39l274 -43q43 -6 71 -37q34 -36 32 -89q-7 -198 -228 -272q-150 -49 -459 -49q-468 0 -472 346
q-1 125 94 324q33 71 74 71q39 0 39 -40q0 5 -31.5 -82.5t-31.5 -146.5q0 -158 182 -221q108 -37 260 -37q446 0 446 69q0 24 -56 34l-241 43q-123 22 -123 95q0 123 110 236q132 133 332 133q22 0 105 -5.5t155 -5.5h52q99 0 192 21q125 28 125 80q0 103 -348 391l48 256
l248 103q241 100 493 184l-72 -236q-172 -60 -526 -189v-11q148 -144 201 -239q62 -110 62 -259q0 -177 -127 -271q-110 -80 -274 -80h-110q-5 0 -10 1z" />
    <glyph glyph-name="uniFEDC_uniFEF2.liga" unicode="&#xfedc;&#xfef2;" horiz-adv-x="2410" 
d="M877 -762l-119 -119l-119 119l119 122zM605 -762l-120 -119l-119 119l119 122zM1350 1q-103 3 -209 18q-131 18 -184 18q-62 0 -102 -24q-34 -22 -34 -47q0 -33 43 -39l274 -43q43 -6 71 -37q34 -36 32 -89q-7 -198 -228 -272q-150 -49 -459 -49q-468 0 -472 346
q-1 125 94 324q33 71 74 71q39 0 39 -40q0 5 -31.5 -82.5t-31.5 -146.5q0 -158 182 -221q108 -37 260 -37q446 0 446 69q0 24 -56 34l-241 43q-123 22 -123 95q0 123 110 236q132 133 332 133q22 0 105 -5.5t155 -5.5h66q79 0 173 20q128 27 128 73q2 116 -340 399l47 256
q121 56 344 141q276 105 434 146l-65 -235q-296 -83 -570 -190v-9l306 -315q277 -286 441 -286h49q41 0 41 -35v-179q0 -36 -41 -36h-75q-152 0 -390 250l-75 78q-7 -170 -139 -258q-107 -70 -260 -70h-110q-5 0 -10 1z" />
    <glyph glyph-name="uniFEDF_uniFB51.rlig" unicode="&#xfedf;&#xfb51;" horiz-adv-x="1158" 
d="M1086 990q-1 -2 -3 -3q-8 -3 -67 15q-14 -410 -207 -630q71 -129 71 -196q0 -85 -46 -146q-57 -76 -167 -78l-350 -8l71 239q89 65 262 181q-127 135 -382 405l-33 -78l-51 80q-111 178 -111 194q0 72 61 218q398 -419 610 -704q87 107 87 294q0 159 -31 352
q172 160 179 160q9 0 48 -103.5t55 -163.5q4 -12 4 -28zM410 1469q0 -81 -54 -131q-47 -44 -120 -44q-13 0 -28 1t-30 3.5t-28.5 4t-21.5 1.5q-28 0 -47 -16t-29 -51q-25 25 -25 66q0 40 30 72q15 14 28.5 20t27.5 6h11q6 0 11 -2q50 81 95 123t88 42q18 0 35 -7t29.5 -20
t20 -30.5t7.5 -37.5zM776 179q0 27 -68 97q-62 -56 -172 -127v-5l105 -2q135 -3 135 37zM360 1435q0 20 -16 32.5t-49 12.5q-30 0 -58.5 -23.5t-58.5 -64.5q13 -2 36 -3t50 -1q9 0 25 3.5t31.5 9.5t27.5 14.5t12 19.5z" />
    <glyph glyph-name="uniFEE0_uniFB51.rlig" unicode="&#xfee0;&#xfb51;" horiz-adv-x="1260" 
d="M1307 36q0 -36 -41 -36h-21q-278 0 -291 271l-12 235h-5q-73 -200 -163 -357q-61 -104 -92 -136q-24 -23 -56.5 -31.5t-211.5 -21.5q-161 -12 -197 -12q-60 0 -60 15q0 17 109 62q211 86 421 285q-48 193 -393 472l-19 -75q-130 119 -170 173q-28 37 -28 71q0 99 34 221
l279 -228q165 -133 245 -252q83 -122 125 -295q157 194 155 480l-2 266q150 142 161 142q7 0 7 -14l23 -913q2 -108 153 -108h9q41 0 41 -35v-179zM419 1477q0 -81 -54 -130q-47 -45 -120 -45q-13 0 -28 1.5t-30 3.5t-28.5 3.5t-21.5 1.5q-28 0 -47 -16t-29 -51
q-25 25 -25 66q0 40 30 72q15 15 28.5 20.5t27.5 5.5h11q6 0 11 -1q50 80 95 122t88 42q18 0 35 -7t29.5 -20t20 -30.5t7.5 -37.5zM369 1443q0 20 -16 32.5t-49 12.5q-30 0 -58.5 -23.5t-58.5 -64.5q13 -2 36 -2.5t50 -0.5q9 0 25 3t31.5 9t27.5 14.5t12 19.5z" />
    <glyph glyph-name="uniFEDF_uniFEE2.liga" unicode="&#xfedf;&#xfee2;" horiz-adv-x="1548" 
d="M794 23q0 42 -39 72l-198 155q-10 -22 -10 -71q0 -85 44 -153q48 -74 121 -74q82 0 82 71zM1020 0q-70 0 -126 30q5 -45 5 -90q0 -72 -44 -140q-51 -80 -126 -80q-157 0 -234 164q-47 102 -53 280q-111 4 -152 -12q-55 -20 -55 -88q0 -52 10 -180.5t10 -206.5
q0 -57 -42 -152q-40 -88 -55 -88q-21 0 -21 72q0 40 -23 274q-23 218 -23 306q0 74 56 167q74 124 198 128l111 4q15 65 55 139q319 -277 472 -277h109q98 0 131 16q41 20 41 85q0 41 -7 101l-85 673l122 119q41 41 51 41q11 0 18 -22q39 -132 88 -246q16 -38 -3 -38
q-16 0 -64 23l16 -455v-226q0 -321 -324 -321h-56z" />
    <glyph glyph-name="uniFEE4_uniFE8E.liga" unicode="&#xfee4;&#xfe8e;" horiz-adv-x="1385" 
d="M1073 251q0 78 -39 156q-47 95 -116 95q-73 0 -73 -98q0 -65 41 -146q48 -94 107 -94q80 0 80 87zM423 0q-132 0 -208 87q-59 69 -59 150q0 133 -19 415q-21 323 -46 469l48 47q122 117 132 117q13 0 20 -203l20 -699q2 -76 38 -106q32 -27 106 -27h45q142 0 142 71
q0 103 54 190q70 112 194 112q187 0 263 -208q60 -165 178 -165h54q41 0 41 -35v-179q0 -36 -41 -36h-54q-48 0 -101 38q-49 36 -80 87q-55 -138 -200 -138q-142 0 -228 147q-36 -62 -104 -100q-59 -34 -112 -34h-83z" />
    <glyph glyph-name="uniFEE4_uniFE82.liga" unicode="&#xfee4;&#xfe82;" horiz-adv-x="1510" 
d="M536 1513q4 -43 -93.5 -105.5t-204.5 -70.5q-39 -3 -94 8.5t-68 11.5q-18 0 -33.5 -29.5t-33.5 -30.5q-30 -2 -34 42q-4 31 30.5 104t65.5 77q15 -4 88 -24t163 -16q78 4 128.5 28.5t59.5 27.5q22 1 26 -23zM1201 251q0 78 -39 156q-47 95 -116 95q-73 0 -73 -98
q0 -65 41 -146q48 -94 107 -94q80 0 80 87zM433 0q-132 0 -208 87q-59 69 -59 150q0 133 -18 415q-22 323 -47 469l49 47q122 117 132 117q12 0 19 -203l20 -699q3 -76 38 -106q32 -27 242 -27h27q142 0 142 71q0 103 54 190q70 112 194 112q187 0 263 -208
q60 -165 178 -165h53q41 0 41 -35v-179q0 -36 -41 -36h-53q-49 0 -101 38q-50 36 -81 87q-54 -138 -199 -138q-142 0 -228 147q-36 -62 -104 -100q-59 -34 -112 -34h-201z" />
    <glyph glyph-name="uniFEE4_uniFE84.liga" unicode="&#xfee4;&#xfe84;" horiz-adv-x="1385" 
d="M363 1513l-32 -97q-81 -27 -217 -86q-54 -32 -67 -65q-15 18 -15 54q0 48 47 82q-54 25 -54 79q0 51 43 106q52 68 130 68q73 0 73 -53q0 -38 -54 -71q-17 32 -71 32q-44 0 -44 -26q0 -23 29.5 -47t61.5 -24t170 48zM1073 251q0 78 -39 156q-47 95 -116 95q-73 0 -73 -98
q0 -65 41 -146q47 -94 107 -94q80 0 80 87zM422 0q-132 0 -208 87q-59 69 -59 150q0 133 -18 415q-22 323 -46 469l48 47q122 117 132 117q13 0 19 -203l20 -699q3 -76 38 -106q32 -27 106 -27h46q142 0 142 71q0 103 54 190q70 112 194 112q186 0 263 -208
q60 -165 178 -165h53q41 0 41 -35v-179q0 -36 -41 -36h-53q-49 0 -102 38q-49 36 -80 87q-54 -138 -199 -138q-142 0 -228 147q-37 -62 -104 -100q-59 -34 -112 -34h-84z" />
    <glyph glyph-name="uniFEE4_uniFE88.liga" unicode="&#xfee4;&#xfe88;" horiz-adv-x="1376" 
d="M474 -228l-31 -96q-82 -28 -217 -87q-55 -32 -67 -65q-15 18 -15 54q0 48 46 82q-53 25 -53 79q0 51 42 106q52 68 131 68q73 0 73 -53q0 -38 -54 -70q-17 31 -71 31q-45 0 -45 -26q0 -23 29.5 -47t61.5 -24q33 0 170 48zM1063 251q0 78 -39 156q-46 95 -116 95
q-73 0 -73 -98q0 -65 41 -146q48 -94 107 -94q80 0 80 87zM424 0q-133 0 -208 87q-59 69 -59 150q0 133 -19 415q-21 323 -46 469l48 47q122 117 132 117q13 0 20 -203l20 -699q2 -76 38 -106q32 -27 106 -27h34q142 0 142 71q0 103 54 190q70 112 194 112q187 0 263 -208
q60 -165 178 -165h54q41 0 41 -35v-179q0 -36 -41 -36h-54q-48 0 -101 38q-49 36 -80 87q-55 -138 -200 -138q-142 0 -228 147q-36 -62 -103 -100q-60 -34 -113 -34h-72z" />
    <glyph glyph-name="uniFEE8_uniFEAE.liga" unicode="&#xfee8;&#xfeae;" horiz-adv-x="1531" 
d="M1285 915l-133 -133l-132 133l132 130zM908 250q152 0 218.5 51.5t66.5 166.5q0 47 47 47q17 0 30 -15t13 -32q0 -218 226 -218h24q41 0 41 -35v-179q0 -36 -41 -36h-62q-127 0 -233 155q-33 -65 -113 -110t-156 -45h-173q-8 0 -15 2q-78 4 -115 24q7 -27 7 -74
q0 -51 -23 -136q-30 -100 -73 -170q-110 -174 -166 -174q-90 0 -242 18q-169 19 -169 38t89 50q170 59 325 198q147 132 147 208t-177 258l103 234q91 -131 149 -174q69 -50 176 -52h96z" />
    <glyph glyph-name="uniFEE7_uniFEE4.liga" unicode="&#xfee7;&#xfee4;" horiz-adv-x="1410" 
d="M1324 1006l-133 -133l-132 133l132 130zM627 251q0 78 -39 156q-46 95 -116 95q-73 0 -73 -98q0 -65 41 -146q48 -94 107 -94q80 0 80 87zM885 0q-48 0 -101 38q-49 36 -80 87q-55 -138 -200 -138q-142 0 -227 147q-37 -62 -104 -100q-60 -34 -112 -34h-66q-41 0 -41 36
v179q0 35 41 35h59q142 0 142 71q0 103 54 190q70 112 194 112q187 0 263 -208q61 -165 178 -165h12q310 0 310 65q0 50 -118 182l132 203q112 -128 112 -314q0 -386 -349 -386h-99z" />
    <glyph glyph-name="uniFEE7_uniFEF0.liga" unicode="&#xfee7;&#xfef0;" horiz-adv-x="1858" 
d="M1760 1006l-133 -133l-132 133l132 130zM1316 2q-86 3 -175 17q-131 18 -184 18q-62 0 -102 -24q-34 -22 -34 -47q0 -33 43 -39l274 -43q43 -6 71 -37q34 -36 32 -89q-7 -198 -228 -272q-150 -49 -459 -49q-468 0 -472 346q-1 125 94 324q33 71 74 71q39 0 39 -40
q0 5 -31.5 -82.5t-31.5 -146.5q0 -158 182 -221q108 -37 260 -37q446 0 446 69q0 24 -56 34l-241 43q-123 22 -123 95q0 123 110 236q132 133 332 133q22 0 105 -5q67 -5 126 -6q276 3 276 65q0 50 -118 182l132 203q112 -128 112 -314q0 -386 -349 -386h-87q-9 0 -17 2z
" />
    <glyph glyph-name="uniFEE7_uniFEF2.liga" unicode="&#xfee7;&#xfef2;" horiz-adv-x="1858" 
d="M1760 1006l-133 -133l-132 133l132 130zM877 -762l-119 -119l-119 119l119 122zM1316 2q-86 3 -175 17q-131 18 -184 18q-62 0 -102 -24q-34 -22 -34 -47q0 -33 43 -39l274 -43q43 -6 71 -37q34 -36 32 -89q-7 -198 -228 -272q-150 -49 -459 -49q-468 0 -472 346
q-1 125 94 324q33 71 74 71q39 0 39 -40q0 5 -31.5 -82.5t-31.5 -146.5q0 -158 182 -221q108 -37 260 -37q446 0 446 69q0 24 -56 34l-241 43q-123 22 -123 95q0 123 110 236q132 133 332 133q22 0 105 -5q67 -5 126 -6q276 3 276 65q0 50 -118 182l132 203
q112 -128 112 -314q0 -386 -349 -386h-87q-9 0 -17 2zM605 -762l-120 -119l-119 119l119 122z" />
    <glyph glyph-name="uniFEF4_uniFEAE.liga" unicode="&#xfef4;&#xfeae;" horiz-adv-x="1531" 
d="M908 250q152 0 218.5 51.5t66.5 166.5q0 47 47 47q17 0 30 -15t13 -32q0 -218 226 -218h24q41 0 41 -35v-179q0 -36 -41 -36h-62q-127 0 -233 155q-33 -65 -113 -110t-156 -45h-173q-8 0 -15 2q-78 4 -115 24q7 -27 7 -74q0 -51 -23 -136q-30 -100 -73 -170
q-110 -174 -166 -174q-90 0 -242 18q-169 19 -169 38t89 50q170 59 325 198q147 132 147 208t-177 258l103 234q91 -131 149 -174q69 -50 176 -52h96zM1111 -291l-119 -120l-119 120l119 122zM1384 -291l-119 -120l-120 120l120 122z" />
    <glyph glyph-name="uniFEF3_uniFEE4.liga" unicode="&#xfef3;&#xfee4;" horiz-adv-x="1473" 
d="M1429 -291l-119 -120l-120 120l120 122zM1157 -291l-120 -120l-119 120l119 122zM627 251q0 78 -39 156q-46 95 -116 95q-73 0 -73 -98q0 -65 41 -146q48 -94 107 -94q80 0 80 87zM885 0q-48 0 -101 38q-49 36 -80 87q-55 -138 -200 -138q-142 0 -227 147
q-37 -62 -104 -100q-60 -34 -112 -34h-66q-41 0 -41 36v179q0 35 41 35h59q142 0 142 71q0 103 54 190q70 112 194 112q187 0 263 -208q61 -165 178 -165h3q310 0 310 65q0 39 -118 182l132 203q112 -128 112 -314q0 -386 -349 -386h-90z" />
    <glyph glyph-name="uniFEF4_uniFEE6.liga" unicode="&#xfef4;&#xfee6;" horiz-adv-x="2017" 
d="M734 612l-133 -133l-132 133l132 130zM1266 0q-57 0 -138 30q14 -72 14 -133q0 -442 -628 -442q-199 0 -311 98q-122 105 -122 313q0 123 84 291q52 103 88 103q35 0 35 -34l-40 -108q-40 -109 -40 -170q0 -123 102 -186q93 -57 250 -57q165 0 297 37q192 54 192 169
q0 63 -47 136q-37 59 -158 199l109 230q151 -226 335 -226h102q152 0 218.5 51.5t66.5 166.5q0 47 47 47q17 0 30 -15t13 -32q0 -218 226 -218h24q41 0 41 -35v-179q0 -36 -41 -36h-62q-127 0 -233 155q-33 -65 -113 -110t-156 -45h-185zM1593 -291l-119 -120l-119 120
l119 122zM1866 -291l-120 -120l-119 120l119 122z" />
    <glyph glyph-name="T_h.liga" unicode="Th" horiz-adv-x="1837" 
d="M985 848h-6l-9 113q-2 14 -5.5 23.5t-9.5 15.5q-7 12 -37.5 13.5t-63.5 1.5h-192v-794q0 -52 1.5 -85t10.5 -47q4 -11 19.5 -15.5t47.5 -7.5l51 -5v-66q-42 1 -106.5 3t-138.5 2t-139.5 -2t-115.5 -3v66l60 5q33 3 47.5 7.5t20.5 15.5q8 14 10 47t2 85v794h-193
q-32 0 -62.5 -1.5t-39.5 -13.5q-4 -6 -8 -15.5t-6 -23.5l-8 -113h-66q-4 80 -8 141t-13 119l9 9q130 -2 257 -3.5t251 -1.5q127 0 255 2q51 0 103 1q30 5 59 9q45 8 92 21l117 36l13 -10v-531l131 102q32 21 65 26t60 5q47 0 96 -16.5t82 -49.5q42 -45 51.5 -104.5
t9.5 -133.5v-305q0 -56 6 -77q3 -13 15 -18.5t38 -9.5l53 -3v-61q-44 1 -82 3t-78 2q-45 0 -81.5 -2t-71.5 -3v446q0 61 -10 95.5t-32 56.5t-51 30t-72 8q-25 0 -48.5 -10.5t-41 -26.5t-28.5 -36t-11 -39v-355q0 -56 7 -77q4 -13 15 -18.5t37 -9.5l59 -3v-61q-53 1 -106.5 3
t-116.5 2q-53 0 -105.5 -2t-96.5 -3v61l48 3q27 4 38.5 9.5t13.5 18.5q8 21 8 77v684z" />
    <glyph glyph-name="f_b.liga" unicode="fb" horiz-adv-x="1573" 
d="M920 174q27 -43 70.5 -67t95.5 -24q59 0 95.5 28t58.5 70t30.5 93t8.5 97q0 49 -11.5 95t-36 81t-63.5 56.5t-94 21.5q-45 0 -88.5 -22.5t-65.5 -59.5v-369zM624 1050v-38l-26 -12q-23 15 -50 27t-54 12q-37 0 -58.5 -11t-31 -31.5t-11.5 -48.5t-2 -59v-177q56 0 111 1.5
t104 4.5l7 -13l-19 -95h-203v-446q0 -56 8 -77q2 -13 25 -19.5t49 -8.5l74 -3v-61q-81 1 -140.5 3t-120.5 2q-53 0 -107.5 -2t-122.5 -3v61l67 3q53 4 61 28q8 21 8 77v446l-130 -8v39q34 17 67 34.5t63 39.5v70q0 50 2 80.5t11.5 55t27 44t48.5 45.5l122 102q29 24 50.5 37
t40 20.5t33 9.5t30.5 2q33 0 67 -10v-57q38 5 71 10q47 8 93 21l119 36l13 -10v-543l100 81q31 23 68.5 43.5t101.5 20.5q66 0 119.5 -24.5t93.5 -65t61 -96t21 -120.5q0 -68 -14.5 -123.5t-37.5 -99.5q-30 -59 -78.5 -99t-98.5 -73q-53 -35 -107 -67.5t-122 -32.5
q-74 0 -126.5 18t-95.5 43l-64 -53l-36 14q3 28 6.5 65t4.5 74t2 72.5t1 60.5v665q0 35 -1 57t-5.5 34.5t-13 17.5t-23.5 7z" />
    <glyph glyph-name="f_f_b.liga" unicode="ffb" horiz-adv-x="2100" 
d="M1448 174q27 -43 70.5 -67t96.5 -24q58 0 95 28t59 70t30 93t8 97q0 49 -11.5 95t-36 81t-63 56.5t-94.5 21.5q-45 0 -88 -22.5t-66 -59.5v-369zM391 610v-446q0 -56 8 -77q2 -13 25 -19.5t49 -8.5l65 -3v-61q-72 1 -131.5 3t-120.5 2q-53 0 -107.5 -2t-122.5 -3v61l67 3
q53 4 61 28q8 21 8 77v446l-130 -8v39q34 17 67 34.5t63 39.5v70q0 50 2 80.5t11.5 55t27 44t48.5 45.5l122 102q29 24 50.5 37t40 20.5t33 9.5t30.5 2q33 0 67 -10v-159l-26 -12q-23 15 -50 27t-54 12q-37 0 -58.5 -11t-31 -31.5t-11.5 -48.5t-2 -59v-177l329 3v70
q0 50 2.5 80.5t11.5 55t26.5 44t48.5 45.5l123 102q29 24 50 37t39.5 20.5t33 9.5t30.5 2q33 0 68 -10v-57q37 5 70 10q47 8 94 21l118 36l13 -10v-543l100 81q31 23 68.5 43.5t102.5 20.5t119 -24.5t93.5 -65t61 -96t21.5 -120.5q0 -68 -14.5 -123.5t-38.5 -99.5
q-29 -59 -78 -99t-99 -73q-53 -35 -107 -67.5t-121 -32.5q-74 0 -127 18t-96 43l-64 -53l-36 14q4 28 7 65t4.5 74t2.5 72.5t1 60.5v665q0 35 -1 57t-5.5 34.5t-13.5 17.5t-23 7l-52 3v-38l-27 -12q-22 15 -49.5 27t-53.5 12q-38 0 -59.5 -11t-31 -31.5t-11 -48.5t-1.5 -59
v-177q55 0 110 1.5t105 4.5l6 -13l-18 -95h-203v-446q0 -56 7 -77q3 -13 25.5 -19.5t49.5 -8.5l73 -3v-61q-81 1 -140.5 3t-119.5 2q-54 0 -108 -2t-113 -3v61l57 3q54 4 62 28q7 21 7 77v446h-329z" />
    <glyph glyph-name="f_f.liga" unicode="ff" horiz-adv-x="1171" 
d="M391 610v-446q0 -56 8 -77q2 -13 25 -19.5t49 -8.5l65 -3v-61q-72 1 -131.5 3t-120.5 2q-53 0 -107.5 -2t-122.5 -3v61l67 3q53 4 61 28q8 21 8 77v446l-130 -8v39q34 17 67 34.5t63 39.5v70q0 50 2 80.5t11.5 55t27 44t48.5 45.5l122 102q29 24 50.5 37t40 20.5t33 9.5
t30.5 2q33 0 67 -10v-159l-26 -12q-23 15 -50 27t-54 12q-37 0 -58.5 -11t-31 -31.5t-11.5 -48.5t-2 -59v-177l329 3v70q0 50 2.5 80.5t11.5 55t26.5 44t48.5 45.5l123 102q29 24 50 37t39.5 20.5t33 9.5t30.5 2q33 0 68 -10v-159l-27 -12q-22 15 -49.5 27t-53.5 12
q-38 0 -59.5 -11t-31 -31.5t-11 -48.5t-1.5 -59v-177q55 0 110 1.5t105 4.5l6 -13l-18 -95h-203v-446q0 -56 7 -77q3 -13 25.5 -19.5t49.5 -8.5l73 -3v-61q-81 1 -140.5 3t-119.5 2q-54 0 -108 -2t-113 -3v61l57 3q54 4 62 28q7 21 7 77v446h-329z" />
    <glyph glyph-name="f_h.liga" unicode="fh" horiz-adv-x="1573" 
d="M624 1050v-38l-26 -12q-23 15 -50 27t-54 12q-37 0 -58.5 -11t-31 -31.5t-11.5 -48.5t-2 -59v-177q56 0 111 1.5t104 4.5l7 -13l-19 -95h-203v-446q0 -56 8 -77q2 -13 25 -19.5t49 -8.5l65 -3v-61q-72 1 -131.5 3t-120.5 2q-53 0 -107.5 -2t-122.5 -3v61l67 3q53 4 61 28
q8 21 8 77v446l-130 -8v39q34 17 67 34.5t63 39.5v70q0 50 2 80.5t11.5 55t27 44t48.5 45.5l122 102q29 24 50.5 37t40 20.5t33 9.5t30.5 2q33 0 67 -10v-59q38 7 73 12q46 8 92 21l118 36l13 -10v-531l131 102q32 21 64.5 26t60.5 5q47 0 96 -16.5t81 -49.5
q42 -45 51.5 -104.5t9.5 -133.5v-305q0 -56 7 -77q2 -13 14 -18.5t39 -9.5l52 -3v-61q-43 1 -81.5 3t-78.5 2q-45 0 -81 -2t-71 -3v446q0 61 -10 95.5t-33 56.5q-22 22 -50.5 30t-72.5 8q-24 0 -48 -10.5t-41 -26.5t-28 -36t-11 -39v-355q0 -56 7 -77q4 -13 14.5 -18.5
t37.5 -9.5l58 -3v-61q-53 1 -106 3t-116 2q-54 0 -106.5 -2t-95.5 -3v61l48 3q26 4 37.5 9.5t14.5 18.5q7 21 7 77v767q0 35 -0.5 57t-6 34.5t-13 17.5t-23.5 7z" />
    <glyph glyph-name="f_f_h.liga" unicode="ffh" horiz-adv-x="2088" 
d="M391 610v-446q0 -56 8 -77q2 -13 25 -19.5t49 -8.5l65 -3v-61q-72 1 -131.5 3t-120.5 2q-53 0 -107.5 -2t-122.5 -3v61l67 3q53 4 61 28q8 21 8 77v446l-130 -8v39q34 17 67 34.5t63 39.5v70q0 50 2 80.5t11.5 55t27 44t48.5 45.5l122 102q29 24 50.5 37t40 20.5t33 9.5
t30.5 2q33 0 67 -10v-159l-26 -12q-23 15 -50 27t-54 12q-37 0 -58.5 -11t-31 -31.5t-11.5 -48.5t-2 -59v-177l329 3v70q0 50 2.5 80.5t11.5 55t26.5 44t48.5 45.5l123 102q29 24 50 37t39.5 20.5t33 9.5t30.5 2q33 0 68 -10v-59q37 7 73 12q45 8 92 21l117 36l13 -10v-531
l131 102q32 21 65 26t60 5q47 0 96 -16.5t82 -49.5q42 -45 51.5 -104.5t9.5 -133.5v-305q0 -56 6 -77q3 -13 15 -18.5t38 -9.5l53 -3v-61q-44 1 -82 3t-79 2q-44 0 -80.5 -2t-71.5 -3v446q0 61 -10 95.5t-32 56.5t-51 30t-72 8q-25 0 -48.5 -10.5t-41 -26.5t-28.5 -36
t-11 -39v-355q0 -56 7 -77q4 -13 15 -18.5t37 -9.5l59 -3v-61q-53 1 -106.5 3t-116.5 2q-53 0 -105.5 -2t-96.5 -3v61l48 3q27 4 38.5 9.5t13.5 18.5q8 21 8 77v767q0 35 -0.5 57t-6 34.5t-13.5 17.5t-23 7l-53 3v-38l-27 -12q-22 15 -49.5 27t-53.5 12q-38 0 -59.5 -11
t-31 -31.5t-11 -48.5t-1.5 -59v-177q55 0 110 1.5t105 4.5l6 -13l-18 -95h-203v-446q0 -56 7 -77q3 -13 25.5 -19.5t49.5 -8.5l64 -3v-61q-72 1 -131.5 3t-119.5 2q-54 0 -108 -2t-113 -3v61l57 3q54 4 62 28q7 21 7 77v446h-329z" />
    <glyph glyph-name="f_f_i.liga" unicode="ffi" horiz-adv-x="1577" 
d="M1330 1158q52 0 87 -35t35 -90q0 -51 -36.5 -86t-85.5 -35q-50 0 -86.5 35t-36.5 86q0 55 35 90t88 35zM391 610v-446q0 -56 8 -77q2 -13 25 -19.5t49 -8.5l56 -3v-61q-63 1 -122.5 3t-120.5 2q-53 0 -107.5 -2t-122.5 -3v61l67 3q53 4 61 28q8 21 8 77v446l-130 -8v39
q34 17 67 34.5t63 39.5v70q0 50 2 80.5t11.5 55t27 44t48.5 45.5l122 102q29 24 50.5 37t40 20.5t33 9.5t30.5 2q33 0 67 -10v-159l-26 -12q-23 15 -50 27t-54 12q-37 0 -58.5 -11t-31 -31.5t-11.5 -48.5t-2 -59v-177l316 3v70q0 50 3 80.5t11.5 55t27 44t49.5 45.5l122 102
q29 24 50.5 37t39.5 20.5t32.5 9.5t31.5 2q32 0 66 -10v-159l-26 -12q-22 15 -49.5 27t-53.5 12q-38 0 -59 -11t-31 -31.5t-11.5 -48.5t-1.5 -59v-177h182q52 0 100 5.5t93 19.5l119 36l12 -2v-607q0 -56 7 -77q3 -13 14.5 -18.5t38.5 -9.5l57 -3v-61q-53 1 -106 3t-115 2
q-55 0 -107.5 -2t-104.5 -3v61l58 3q25 4 37 9.5t15 18.5q6 21 6 77v371q0 58 -14.5 82t-47.5 24h-51l-11 -31h-182v-446q0 -56 7 -77q7 -26 58 -28l58 -3v-61q-58 1 -112 3t-116 2q-54 0 -108.5 -2t-104.5 -3v61l48 3q55 4 63 28q6 21 6 77v446h-316z" />
    <glyph glyph-name="f_j.liga" unicode="fj" horiz-adv-x="1016" 
d="M773 1158q53 0 88 -35t35 -90q0 -51 -37 -86t-86 -35t-86 35t-37 86q0 55 35.5 90t87.5 35zM650 715q46 7 92 22l114 36l18 -10v-602q0 -83 -3.5 -150t-13.5 -124t-29 -106.5t-50 -92.5q-44 -59 -96 -91.5t-101 -32.5q-14 0 -29 0.5t-29 2.5l-17 58l6 9h38q71 0 95 72
q17 48 22.5 103.5t5.5 127.5v586q0 35 -1 57t-5.5 34t-13 17.5t-23.5 6.5l-65 4l-7 -32h-203v-446q0 -56 8 -77q2 -13 25 -19.5t49 -8.5l74 -3v-61q-81 1 -140.5 3t-120.5 2q-53 0 -107.5 -2t-122.5 -3v61l67 3q53 4 61 28q8 21 8 77v446l-130 -8v39q34 17 67 34.5t63 39.5
v70q0 50 2 80.5t11.5 55t27 44t48.5 45.5l122 102q29 24 50.5 37t40 20.5t33 9.5t30.5 2q33 0 67 -10v-159l-26 -12q-23 15 -50 27t-54 12q-37 0 -58.5 -11t-31 -31.5t-11.5 -48.5t-2 -59v-177q56 0 111 1.5t104 4.5l7 -13q36 5 73 10z" />
    <glyph glyph-name="f_f_j.liga" unicode="ffj" horiz-adv-x="1577" 
d="M1329 1158q53 0 88 -35t35 -90q0 -51 -37.5 -86t-85.5 -35q-49 0 -86.5 35t-37.5 86q0 55 35.5 90t88.5 35zM391 610v-446q0 -56 8 -77q2 -13 25 -19.5t49 -8.5l56 -3v-61q-63 1 -122.5 3t-120.5 2q-53 0 -107.5 -2t-122.5 -3v61l67 3q53 4 61 28q8 21 8 77v446l-130 -8
v39q34 17 67 34.5t63 39.5v70q0 50 2 80.5t11.5 55t27 44t48.5 45.5l122 102q29 24 50.5 37t40 20.5t33 9.5t30.5 2q33 0 67 -10v-159l-26 -12q-23 15 -50 27t-54 12q-37 0 -58.5 -11t-31 -31.5t-11.5 -48.5t-2 -59v-177l320 3v70q0 50 2.5 80.5t11.5 55t26.5 44t48.5 45.5
l122 102q30 24 51 37t39.5 20.5t33 9.5t30.5 2q33 0 68 -10v-159l-27 -12q-22 15 -49.5 27t-54.5 12q-37 0 -58.5 -11t-31 -31.5t-11 -48.5t-1.5 -59v-177q55 0 110 1.5t105 4.5l6 -13q36 5 74 10q45 7 92 22l114 36l17 -10v-602q0 -83 -3 -150t-13 -124t-29.5 -106.5
t-50.5 -92.5q-43 -59 -95 -91.5t-102 -32.5q-14 0 -28.5 0.5t-29.5 2.5l-17 58l6 9h39q71 0 94 72q18 48 23 103.5t5 127.5v586q0 35 -0.5 57t-5 34t-13.5 17.5t-23 6.5l-66 4l-6 -32h-203v-446q0 -56 7 -77q3 -13 25.5 -19.5t49.5 -8.5l73 -3v-61q-81 1 -140.5 3t-119.5 2
q-54 0 -108 -2t-104 -3v61l48 3q54 4 62 28q7 21 7 77v446h-320z" />
    <glyph glyph-name="f_k.liga" unicode="fk" horiz-adv-x="1573" 
d="M624 1050v-38l-26 -12q-23 15 -50 27t-54 12q-37 0 -58.5 -11t-31 -31.5t-11.5 -48.5t-2 -59v-177q56 0 111 1.5t104 4.5l7 -13l-19 -95h-203v-446q0 -56 8 -77q2 -13 25 -19.5t49 -8.5l74 -3v-61q-81 1 -140.5 3t-120.5 2q-53 0 -107.5 -2t-122.5 -3v61l67 3q53 4 61 28
q8 21 8 77v446l-130 -8v39q34 17 67 34.5t63 39.5v70q0 50 2 80.5t11.5 55t27 44t48.5 45.5l122 102q29 24 50.5 37t40 20.5t33 9.5t30.5 2q33 0 67 -10v-60q49 7 89 13q47 8 94 21l117 36l14 -10v-763q42 37 87.5 77t86.5 83l175 185h213v-62h-50q-24 0 -44.5 -9.5
t-34.5 -21.5l-102 -73q-35 -27 -67 -57.5t-61 -60.5l322 -361q12 -14 35.5 -31.5t54.5 -20.5v-56h-283q-10 11 -27 33.5t-37.5 48t-41.5 50t-37 42.5l-174 197h-15v-207q0 -56 6 -77q3 -13 15 -18.5t37 -9.5l58 -3v-61q-52 1 -106 3t-115 2q-55 0 -107 -2t-105 -3v61l57 3
q27 4 38.5 9.5t14.5 18.5q6 21 6 77v767q0 35 -0.5 57t-5.5 34.5t-13.5 17.5t-21.5 7z" />
    <glyph glyph-name="f_f_k.liga" unicode="ffk" horiz-adv-x="2113" 
d="M391 610v-446q0 -56 8 -77q2 -13 25 -19.5t49 -8.5l65 -3v-61q-72 1 -131.5 3t-120.5 2q-53 0 -107.5 -2t-122.5 -3v61l67 3q53 4 61 28q8 21 8 77v446l-130 -8v39q34 17 67 34.5t63 39.5v70q0 50 2 80.5t11.5 55t27 44t48.5 45.5l122 102q29 24 50.5 37t40 20.5t33 9.5
t30.5 2q33 0 67 -10v-159l-26 -12q-23 15 -50 27t-54 12q-37 0 -58.5 -11t-31 -31.5t-11.5 -48.5t-2 -59v-177l338 3v70q0 50 2.5 80.5t11.5 55t27 44t49 45.5l122 102q29 24 50.5 37t39.5 20.5t32.5 9.5t31.5 2q32 0 67 -10v-60q48 7 88 13q48 8 94 21l118 36l13 -10v-763
q42 37 87.5 77t86.5 83l175 185h213v-62h-50q-23 0 -43.5 -9.5t-35.5 -21.5l-102 -73q-35 -27 -66.5 -57.5t-60.5 -60.5l321 -361q13 -14 36 -31.5t54 -20.5v-56h-282q-10 11 -27.5 33.5t-38 48t-41.5 50t-36 42.5l-174 197h-16v-207q0 -56 7 -77q2 -13 14 -18.5t38 -9.5
l57 -3v-61q-52 1 -105.5 3t-114.5 2q-55 0 -107.5 -2t-105.5 -3v61l58 3q26 4 38 9.5t15 18.5q6 21 6 77v767q0 35 -1 57t-6 34.5t-13 17.5t-22 7l-71 3v-38l-26 -12q-23 15 -50.5 27t-53.5 12q-38 0 -59 -11t-31 -31.5t-11.5 -48.5t-1.5 -59v-177q55 0 110.5 1.5t104.5 4.5
l6 -13l-18 -95h-203v-446q0 -56 7 -77q3 -13 25.5 -19.5t49.5 -8.5l74 -3v-61q-82 1 -141.5 3t-119.5 2q-54 0 -108 -2t-113 -3v61l57 3q54 4 62 28q7 21 7 77v446h-338z" />
    <glyph glyph-name="f_f_l.liga" unicode="ffl" horiz-adv-x="1565" 
d="M391 610v-446q0 -56 8 -77q2 -13 25 -19.5t49 -8.5l56 -3v-61q-63 1 -122.5 3t-120.5 2q-53 0 -107.5 -2t-122.5 -3v61l67 3q53 4 61 28q8 21 8 77v446l-130 -8v39q34 17 67 34.5t63 39.5v70q0 50 2 80.5t11.5 55t27 44t48.5 45.5l122 102q29 24 50.5 37t40 20.5t33 9.5
t30.5 2q33 0 67 -10v-159l-26 -12q-23 15 -50 27t-54 12q-37 0 -58.5 -11t-31 -31.5t-11.5 -48.5t-2 -59v-177l319 3v70q0 50 2.5 80.5t11.5 55t27 44t49 45.5l121 102q58 48 89 58.5t55 10.5q18 0 29 -2l22 -4v-60q43 6 86.5 12.5t87.5 20.5l99 33l14 -10v-1007
q0 -56 6 -77q3 -13 14.5 -18.5t38.5 -9.5l56 -3v-61q-52 1 -105 3t-116 2q-54 0 -106.5 -2t-105.5 -3v61l58 3q26 4 37.5 9.5t15.5 18.5q6 21 6 77v767q0 35 -1 57t-5.5 34.5t-13 17.5t-23.5 7l-43 4v-54l-25 -7q-13 19 -39 34t-52 15q-57 0 -73 -43t-16 -107v-177
q41 0 94.5 1.5t102.5 4.5l8 -13l-19 -95h-186v-446q0 -56 6 -77q3 -13 26 -18.5t50 -9.5l40 -3v-61q-57 1 -111.5 3t-115.5 2q-55 0 -109 -2t-104 -3v61l49 3q53 4 62 28q6 21 6 77v446h-319z" />
    <glyph glyph-name="f_t.liga" unicode="ft" horiz-adv-x="1100" 
d="M391 610v-446q0 -56 8 -77q2 -13 25 -19.5t49 -8.5l74 -3v-61q-81 1 -140.5 3t-120.5 2q-53 0 -107.5 -2t-122.5 -3v61l67 3q53 4 61 28q8 21 8 77v446l-130 -8v39q34 17 67 34.5t63 39.5v70q0 50 2 80.5t11.5 55t27 44t48.5 45.5l122 102q29 24 50.5 37t40 20.5t33 9.5
t30.5 2q33 0 67 -10v-159l-26 -12q-23 15 -50 27t-54 12q-37 0 -58.5 -11t-31 -31.5t-11.5 -48.5t-2 -59v-177l299 -7v99q0 38 -1.5 75t-4.5 76q54 20 108.5 42t91.5 39l23 -16q-10 -50 -15 -107.5t-5 -115.5v-95l187 10l-13 -107h-174v-390q0 -63 23 -85t79 -22
q26 0 41.5 7t34.5 14l13 -31l-81 -96q-8 -12 -34.5 -21t-65.5 -9q-113 0 -161.5 48.5t-48.5 159.5v425z" />
    <glyph glyph-name="f_f_t.liga" unicode="fft" horiz-adv-x="1619" 
d="M391 610v-446q0 -56 8 -77q2 -13 25 -19.5t49 -8.5l56 -3v-61q-63 1 -122.5 3t-120.5 2q-53 0 -107.5 -2t-122.5 -3v61l67 3q53 4 61 28q8 21 8 77v446l-130 -8v39q34 17 67 34.5t63 39.5v70q0 50 2 80.5t11.5 55t27 44t48.5 45.5l122 102q29 24 50.5 37t40 20.5t33 9.5
t30.5 2q33 0 67 -10v-159l-26 -12q-23 15 -50 27t-54 12q-37 0 -58.5 -11t-31 -31.5t-11.5 -48.5t-2 -59v-177l320 3v70q0 50 2.5 80.5t11.5 55t26.5 44t48.5 45.5l122 102q30 24 51 37t39.5 20.5t33 9.5t30.5 2q33 0 68 -10v-159l-27 -12q-22 15 -49.5 27t-54.5 12
q-37 0 -58.5 -11t-31 -31.5t-11 -48.5t-1.5 -59v-177l298 -7v99q0 38 -1 75t-5 76q55 20 109 42t91 39l23 -16q-10 -50 -15 -107.5t-5 -115.5v-95l187 10l-13 -107h-174v-390q0 -63 23.5 -85t78.5 -22q27 0 42.5 7t33.5 14l13 -31l-81 -96q-8 -12 -34.5 -21t-65.5 -9
q-113 0 -161 48.5t-48 159.5v425l-296 5v-446q0 -56 7 -77q3 -13 25.5 -19.5t49.5 -8.5l73 -3v-61q-81 1 -140.5 3t-119.5 2q-54 0 -108 -2t-104 -3v61l48 3q54 4 62 28q7 21 7 77v446h-320z" />
    <glyph glyph-name="uni0647.fina" unicode="&#x647;" horiz-adv-x="1116" arabic-form="final" 
d="M1162 36q0 -36 -41 -36h-216q18 -38 25.5 -75.5t7.5 -69.5q0 -60 -19 -116t-51.5 -99.5t-75.5 -69.5t-90 -26q-52 0 -107 32.5t-103.5 90.5t-85 137.5t-52.5 173.5q-96 -33 -155.5 -77.5t-97.5 -107.5q-6 -9 -11 -12t-11 -3q-11 0 -11 32q0 16 3.5 39t9.5 49.5t14.5 56
t18.5 57.5q29 76 79.5 123.5t135.5 74.5q8 92 26.5 174.5t47.5 157t68.5 143t88.5 132.5q117 -167 161 -281q38 -99 38 -206q0 -63 -16 -115q66 18 147 26.5t186 8.5h45q41 0 41 -35v-179zM600 18q-30 0 -59 -2.5t-54 -12.5q11 -49 40.5 -94t68 -79.5t80.5 -55t81 -20.5
q20 0 31.5 15t11.5 49q0 23 -13 58t-38.5 66.5t-63 53.5t-85.5 22zM647 319q0 35 -113 215q-47 -73 -69 -146.5t-23 -150.5q45 10 90.5 17t86.5 22q28 11 28 43z" />
    <glyph glyph-name="uni0672.fina" unicode="&#x672;" horiz-adv-x="471" 
d="M517 36q0 -36 -35 -36h-60q-132 0 -208 87q-59 69 -59 150q0 133 -18 415q-22 323 -47 469l48 47q123 117 133 117q12 0 19 -203l20 -699q2 -76 38 -106q32 -27 106 -27q63 0 63 -35v-179zM127 1366q-25 8 -40 8q-20 0 -39.5 -15.5t-23.5 -36.5q-14 7 -14 25
q0 37 23 73.5t55 46.5l31 1l49 -5q-48 29 -48 72q0 48 37.5 97.5t96.5 49.5q63 0 63 -45q0 -36 -37 -57q-17 37 -51 37q-52 0 -52 -39q0 -22 22 -44q26 -25 55 -25q25 0 76 19q29 11 58 23l-18 -82q-66 -26 -110.5 -74t-114.5 -34q-17 4 -18 5z" />
    <glyph glyph-name="uni0673.fina" unicode="&#x673;" horiz-adv-x="471" 
d="M518 36q0 -36 -36 -36h-60q-132 0 -208 87q-59 69 -59 150q0 133 -18 415q-22 323 -47 469l49 47q122 117 132 117q13 0 19 -203l20 -699q3 -76 38 -106q32 -27 106 -27q64 0 64 -35v-179zM191 -443q-25 8 -40 8q-20 0 -39.5 -15.5t-23.5 -35.5q-14 7 -14 25
q0 36 23 72.5t55 46.5l31 1l49 -4q-48 29 -48 72q0 48 37.5 97t96.5 49q63 0 63 -44q0 -37 -37 -58q-17 38 -51 38q-52 0 -52 -39q0 -22 22 -44q26 -26 55 -26q25 0 76 19q29 11 58 23l-18 -82q-66 -25 -110.5 -73t-114.5 -34q-17 3 -18 4z" />
    <glyph glyph-name="uni0675.fina" unicode="&#x675;" horiz-adv-x="689" 
d="M664 1513l-32 -97q-81 -27 -217 -86q-54 -32 -67 -65q-15 18 -15 54q0 48 47 82q-54 25 -54 79q0 51 43 106q52 68 130 68q73 0 73 -53q0 -38 -54 -71q-17 32 -71 32q-44 0 -44 -26q0 -23 29.5 -47t61.5 -24t170 48zM737 36q0 -36 -36 -36h-278q-132 0 -208 87
q-59 69 -59 150q0 133 -19 415q-21 323 -46 469l48 47q122 117 132 117q13 0 20 -203l20 -699q2 -76 38 -106q32 -27 324 -27q64 0 64 -35v-179z" />
    <glyph glyph-name="uni0676.fina" unicode="&#x676;" horiz-adv-x="934" 
d="M906 920l-31 -106q-44 -6 -111 -25q-140 -40 -187 -106q-10 18 -10 43q0 56 69 95q-57 36 -57 95q0 60 61.5 119.5t125.5 59.5q92 0 92 -73q0 -29 -19 -50q-26 30 -87 30q-105 0 -105 -55q0 -24 33 -46t64 -22q83 0 162 41zM979 36q0 -36 -41 -36h-261q-9 -177 -65 -298
q-44 -97 -136 -189q-41 -41 -79 -41q-59 0 -251 22q-146 18 -146 36q0 16 67 43q199 77 356 211q143 123 143 190q0 14 -10 37q-50 -11 -161 -11q-253 0 -253 160q0 99 58 244q78 201 199 201q118 0 192 -109q65 -96 77 -246h270q41 0 41 -35v-179zM527 241
q-42 149 -171 149q-39 0 -65 -28q-22 -24 -22 -50q0 -81 140 -81q61 0 118 10z" />
    <glyph glyph-name="uni0677.fina" unicode="&#x677;" horiz-adv-x="934" 
d="M879 920l-32 -106q-43 -6 -110 -25q-140 -40 -188 -106q-10 18 -10 43q0 56 70 95q-58 36 -58 95q0 60 62 119.5t126 59.5q92 0 92 -73q0 -29 -19 -50q-27 30 -88 30q-104 0 -104 -55q0 -24 33 -46t64 -22q83 0 162 41zM979 36q0 -36 -41 -36h-261q-9 -177 -65 -298
q-44 -97 -136 -189q-41 -41 -79 -41q-59 0 -251 22q-146 18 -146 36q0 16 67 43q199 77 356 211q143 123 143 190q0 14 -10 37q-50 -11 -161 -11q-253 0 -253 160q0 99 58 244q78 201 199 201q118 0 192 -109q65 -96 77 -246h270q41 0 41 -35v-179zM527 241
q-42 149 -171 149q-39 0 -65 -28q-22 -24 -22 -50q0 -81 140 -81q61 0 118 10zM488 845q-21 -31 -63 -78l-60 25q-81 -101 -233 -101q-54 0 -69 33q54 12 131 41q89 34 118 59q-31 10 -58 36q-34 32 -34 66q0 58 57 111.5t113 53.5q65 0 65 -102q0 -68 -28 -119zM390 933
q0 67 -34 67q-60 0 -60 -35q0 -20 35 -45q27 -21 52 -28q7 17 7 41z" />
    <glyph glyph-name="uni0678.init" unicode="&#x678;" horiz-adv-x="670" 
d="M431 386q0 -386 -349 -386h-87q-41 0 -41 36v179q0 35 41 35q310 0 310 65q0 39 -118 182l132 203q112 -128 112 -314zM652 1057l-32 -107q-44 -5 -110 -24q-141 -40 -188 -106q-10 18 -10 43q0 55 69 94q-57 37 -57 96t62 119t126 60q92 0 92 -73q0 -29 -20 -50
q-26 30 -87 30q-105 0 -105 -55q0 -24 33.5 -46t64.5 -22q83 0 162 41z" />
    <glyph glyph-name="uni0678.medi" unicode="&#x678;" horiz-adv-x="873" 
d="M919 36q0 -36 -41 -36h-208q-127 0 -233 155q-33 -65 -113 -110t-156 -45h-173q-41 0 -41 36v179q0 35 41 35h112q152 0 218.5 51.5t66.5 166.5q0 47 47 47q17 0 29.5 -15t12.5 -32q0 -218 226 -218h171q41 0 41 -35v-179zM752 920l-32 -106q-44 -6 -110 -25
q-140 -40 -188 -106q-10 18 -10 43q0 56 69 95q-57 36 -57 95q0 60 62 119.5t126 59.5q92 0 92 -73q0 -29 -19 -50q-27 30 -88 30q-105 0 -105 -55q0 -24 33.5 -46t64.5 -22q83 0 162 41z" />
    <glyph glyph-name="uni0678.fina" unicode="&#x678;" horiz-adv-x="1578" 
d="M1426 644l-32 -106q-43 -6 -110 -25q-140 -40 -188 -106q-10 18 -10 43q0 56 70 95q-58 36 -58 95q0 60 62 119.5t127 59.5q91 0 91 -73q0 -29 -19 -50q-27 30 -88 30q-105 0 -105 -55q0 -25 35 -47q32 -21 63 -21q83 0 162 41zM1624 36q0 -36 -41 -36
q-307 0 -437.5 18.5t-183.5 18.5q-62 0 -102 -24q-34 -22 -34 -47q0 -33 43 -39l274 -43q43 -6 71 -37q34 -36 32 -89q-7 -198 -228 -272q-150 -49 -459 -49q-468 0 -472 346q-1 125 94 324q33 71 74 71q39 0 39 -40q0 5 -31.5 -82.5t-31.5 -146.5q0 -158 182 -221
q108 -37 260 -37q446 0 446 69q0 23 -56 34l-241 43q-123 22 -123 95q0 123 110 236q132 133 332 133q22 0 105 -5.5t337 -5.5q41 0 41 -35v-179z" />
    <glyph glyph-name="uni067C.init" unicode="&#x67c;" horiz-adv-x="812" 
d="M746 974l-120 -119l-119 119l119 121zM473 974l-119 -119l-119 119l119 121zM430 -153q0 33 -80 86q-76 52 -127 61q-56 -45 -56 -117q0 -79 146 -79q38 0 77.5 16t39.5 33zM136 0h-141q-41 0 -41 36v179q0 35 41 35q492 0 492 65q0 39 -118 182l133 203
q112 -128 112 -314q0 -267 -167 -349q58 -73 58 -173q0 -111 -64 -170q-62 -58 -173 -58q-98 0 -148 46q-44 42 -44 111q0 94 60 207z" />
    <glyph glyph-name="uni067C.medi" unicode="&#x67c;" horiz-adv-x="819" 
d="M681 910l-119 -119l-120 119l120 122zM409 910l-120 -119l-119 119l119 122zM411 -162q0 33 -79 86q-76 52 -127 61q-56 -45 -56 -117q0 -79 146 -79q38 0 77 16t39 33zM123 0h-128q-41 0 -41 36v179q0 35 41 35h203q152 0 218.5 51.5t66.5 166.5q0 47 47 47q17 0 30 -15
t13 -32q0 -218 226 -218h24q41 0 41 -35v-179q0 -36 -41 -36h-62q-127 0 -233 155q-33 -65 -113 -109v-1q72 -78 72 -190q0 -111 -64 -170q-62 -58 -173 -58q-98 0 -148 46q-44 42 -44 111q0 94 60 207q3 4 5 9z" />
    <glyph glyph-name="uni067C.fina" unicode="&#x67c;" horiz-adv-x="1655" 
d="M1063 862l-119 -120l-119 120l119 121zM791 862l-119 -120l-120 120l120 121zM783 -18l-20 -2q-50 -44 -50 -112q0 -79 145 -79q39 0 78 16t39 33q0 33 -79 86q-67 45 -113 58zM674 -23h-20q-276 0 -407 81q-143 88 -143 285q0 102 46 199q41 88 73 88q41 0 41 -37
q0 -4 -16.5 -46.5t-16.5 -94.5q0 -112 124 -171q113 -53 297 -53q322 0 517 73q131 49 208 135q64 73 71 73q44 0 44 -44q0 -62 -37 -137q39 -78 205 -78q41 0 41 -35v-179q0 -36 -41 -36q-128 0 -187.5 37.5t-109.5 143.5q-145 -118 -360 -167q48 -69 48 -159
q0 -111 -64 -170q-62 -58 -173 -58q-99 0 -149 46q-44 42 -44 111q0 88 53 193z" />
    <glyph glyph-name="uni067D.init" unicode="&#x67d;" horiz-adv-x="621" 
d="M308 808l-119 121l119 120l120 -120zM444 1045l-119 121l119 119l119 -119zM172 1045l-120 121l120 119l119 -119zM431 386q0 -386 -349 -386h-87q-41 0 -41 36v179q0 35 41 35q310 0 310 65q0 39 -118 182l132 203q112 -128 112 -314z" />
    <glyph glyph-name="uni067D.medi" unicode="&#x67d;" horiz-adv-x="726" 
d="M335 752l-120 121l120 120l119 -120zM471 988l-120 123l120 119l119 -119zM198 988l-119 123l119 119l120 -119zM773 36q0 -36 -41 -36h-62q-127 0 -233 155q-33 -65 -113 -110t-156 -45h-173q-41 0 -41 36v179q0 35 41 35h112q152 0 218.5 51.5t66.5 166.5q0 47 47 47
q17 0 29.5 -15t12.5 -32q0 -218 226 -218h25q41 0 41 -35v-179z" />
    <glyph glyph-name="uni067D.fina" unicode="&#x67d;" horiz-adv-x="1655" 
d="M802 705l-119 121l119 120l119 -120zM938 942l-120 121l120 120l120 -120zM665 942l-119 121l119 120l120 -120zM1701 36q0 -36 -41 -36q-128 0 -187.5 37.5t-109.5 143.5q-250 -204 -709 -204q-276 0 -407 81q-143 88 -143 285q0 102 46 199q41 88 73 88q41 0 41 -37
q0 -4 -16.5 -46.5t-16.5 -94.5q0 -112 124 -171q113 -53 297 -53q322 0 517 73q131 49 208 135q64 73 71 73q44 0 44 -44q0 -62 -37 -137q39 -78 205 -78q41 0 41 -35v-179z" />
    <glyph glyph-name="uni0681.init" unicode="&#x681;" horiz-adv-x="1244" 
d="M1185 497l-127 -208q-21 2 -35 2q-70 0 -159 -34q-102 -37 -335 -154q-206 -103 -429 -103h-105q-41 0 -41 36v179q0 35 41 35h95q185 0 323 31q103 22 317 100v7q-250 118 -351 118q-65 0 -121.5 -59t-70.5 -59q-35 0 -35 37q0 60 72 166q92 135 209 135
q67 0 316 -114.5t386 -114.5h50zM768 1053l-32 -106q-44 -6 -111 -25q-140 -40 -187 -106q-10 19 -10 43q0 56 69 95q-57 36 -57 96q0 59 61.5 118.5t125.5 59.5q92 0 92 -73q0 -29 -19 -50q-26 30 -87 30q-105 0 -105 -55q0 -24 33 -46t64 -22q83 0 163 41z" />
    <glyph glyph-name="uni0681.medi" unicode="&#x681;" horiz-adv-x="1244" 
d="M1291 36q0 -36 -41 -36h-108q-193 0 -279 102q-67 81 -62 213q-225 -187 -388.5 -251t-417.5 -64q-41 0 -41 36v179q0 35 41 35q236 0 398 41q184 45 350 159v7q-72 22 -200 50.5t-160 28.5q-65 0 -121.5 -59t-70.5 -59q-36 0 -36 38q0 59 72 164q92 135 210 135
q94 0 222 -54q202 -85 405 -81l119 1l-102 -227q-54 5 -96 5q-51 0 -91 -18q-3 -88 108 -115q66 -16 248 -16q41 0 41 -35v-179zM813 1053l-32 -106q-44 -6 -110 -25q-140 -40 -188 -106q-10 19 -10 43q0 56 70 95q-58 36 -58 96q0 59 62 118.5t126 59.5q92 0 92 -73
q0 -29 -19 -50q-27 30 -88 30q-105 0 -105 -55q0 -24 33.5 -46t64.5 -22q83 0 162 41z" />
    <glyph glyph-name="uni0681.fina" unicode="&#x681;" horiz-adv-x="1283" 
d="M1330 36q0 -36 -41 -36h-149q-122 0 -215 72q-110 83 -110 223q0 22 3 68t3 57q-253 -71 -371 -184q-126 -121 -126 -314q0 -140 102 -224q131 -109 418 -109q137 0 247 19q95 16 91 18q10 0 10 -9q0 -17 -40 -54q-55 -51 -145 -83q-122 -43 -289 -43q-268 0 -435 100
q-192 116 -192 336q0 398 562 584v9q-184 40 -295 40q-65 0 -108 -32q-21 -15 -55 -59q-25 -31 -44 -31q-32 0 -32 38q0 70 70 179q87 136 197 136q63 0 273 -40t276 -40q147 0 263 13l-114 -228q-106 0 -164 -11v-34q0 -86 80 -120q64 -27 198 -27h91q41 0 41 -35v-179z
M813 1053l-32 -106q-44 -6 -111 -25q-140 -40 -187 -106q-10 19 -10 43q0 56 69 95q-57 36 -57 96q0 59 61.5 118.5t125.5 59.5q92 0 92 -73q0 -29 -19 -50q-26 30 -87 30q-105 0 -105 -55q0 -24 33 -46t64 -22q83 0 163 41z" />
    <glyph glyph-name="uni0682.init" unicode="&#x682;" horiz-adv-x="1244" 
d="M764 1320l-133 -132l-132 132l132 130zM1185 497l-127 -208q-21 2 -35 2q-70 0 -159 -34q-102 -37 -335 -154q-206 -103 -429 -103h-105q-41 0 -41 36v179q0 35 41 35h95q185 0 323 31q103 22 317 100v7q-250 118 -351 118q-65 0 -121.5 -59t-70.5 -59q-35 0 -35 37
q0 60 72 166q92 135 209 135q67 0 316 -114.5t386 -114.5h50zM760 1052l-133 -132l-132 132l132 131z" />
    <glyph glyph-name="uni0682.medi" unicode="&#x682;" horiz-adv-x="1244" 
d="M807 1320l-133 -132l-132 132l132 130zM1291 36q0 -36 -41 -36h-108q-193 0 -279 102q-67 81 -62 213q-225 -187 -388.5 -251t-417.5 -64q-41 0 -41 36v179q0 35 41 35q236 0 398 41q184 45 350 159v7q-72 22 -200 50.5t-160 28.5q-65 0 -121.5 -59t-70.5 -59
q-36 0 -36 38q0 59 72 164q92 135 210 135q94 0 222 -54q202 -85 405 -81l119 1l-102 -227q-54 5 -96 5q-51 0 -91 -18q-3 -88 108 -115q66 -16 248 -16q41 0 41 -35v-179zM807 1052l-133 -132l-132 132l132 131z" />
    <glyph glyph-name="uni0682.fina" unicode="&#x682;" horiz-adv-x="1283" 
d="M1330 36q0 -36 -41 -36h-149q-122 0 -215 72q-110 83 -110 223q0 22 3 68t3 57q-253 -71 -371 -184q-126 -121 -126 -314q0 -140 102 -224q131 -109 418 -109q137 0 247 19q95 16 91 18q10 0 10 -9q0 -17 -40 -54q-55 -51 -145 -83q-122 -43 -289 -43q-268 0 -435 100
q-192 116 -192 336q0 398 562 584v9q-184 40 -295 40q-65 0 -108 -32q-21 -15 -55 -59q-25 -31 -44 -31q-32 0 -32 38q0 70 70 179q87 136 197 136q63 0 273 -40t276 -40q147 0 263 13l-114 -228q-106 0 -164 -11v-34q0 -86 80 -120q64 -27 198 -27h91q41 0 41 -35v-179z
M808 1321l-133 -132l-132 132l132 130zM812 1052l-133 -132l-132 132l132 131z" />
    <glyph glyph-name="uni0685.init" unicode="&#x685;" horiz-adv-x="1244" 
d="M1185 497l-127 -208q-21 2 -35 2q-70 0 -159 -34q-102 -37 -335 -154q-206 -103 -429 -103h-105q-41 0 -41 36v179q0 35 41 35h95q185 0 323 31q103 22 317 100v7q-250 118 -351 118q-65 0 -121.5 -59t-70.5 -59q-35 0 -35 37q0 60 72 166q92 135 209 135
q67 0 316 -114.5t386 -114.5h50zM748 1298l-120 -119l-119 119l119 121zM883 1061l-119 -119l-119 119l119 122zM611 1061l-119 -119l-120 119l120 122z" />
    <glyph glyph-name="uni0685.medi" unicode="&#x685;" horiz-adv-x="1244" 
d="M1291 36q0 -36 -41 -36h-108q-193 0 -279 102q-67 81 -62 213q-225 -187 -388.5 -251t-417.5 -64q-41 0 -41 36v179q0 35 41 35q236 0 398 41q184 45 350 159v7q-72 22 -200 50.5t-160 28.5q-65 0 -121.5 -59t-70.5 -59q-36 0 -36 38q0 59 72 164q92 135 210 135
q94 0 222 -54q202 -85 405 -81l119 1l-102 -227q-54 5 -96 5q-51 0 -91 -18q-3 -88 108 -115q66 -16 248 -16q41 0 41 -35v-179zM794 1303l-119 -120l-120 120l120 121zM930 1066l-120 -119l-119 119l119 121zM657 1066l-119 -119l-119 119l119 121z" />
    <glyph glyph-name="uni0685.fina" unicode="&#x685;" horiz-adv-x="1283" 
d="M1330 36q0 -36 -41 -36h-149q-122 0 -215 72q-110 83 -110 223q0 22 3 68t3 57q-253 -71 -371 -184q-126 -121 -126 -314q0 -140 102 -224q131 -109 418 -109q137 0 247 19q95 16 91 18q10 0 10 -9q0 -17 -40 -54q-55 -51 -145 -83q-122 -43 -289 -43q-268 0 -435 100
q-192 116 -192 336q0 398 562 584v9q-184 40 -295 40q-65 0 -108 -32q-21 -15 -55 -59q-25 -31 -44 -31q-32 0 -32 38q0 70 70 179q87 136 197 136q63 0 273 -40t276 -40q147 0 263 13l-114 -228q-106 0 -164 -11v-34q0 -86 80 -120q64 -27 198 -27h91q41 0 41 -35v-179z
M793 1303l-119 -120l-119 120l119 121zM929 1066l-119 -119l-120 119l120 121zM657 1066l-120 -119l-119 119l119 121z" />
    <glyph glyph-name="uni0689.fina" unicode="&#x689;" horiz-adv-x="1047" 
d="M413 1q-5 0 -11 -1q-53 -44 -53 -114q0 -79 145 -79q39 0 78 16t39 33q0 33 -79 87q-70 47 -119 58zM315 4q-215 24 -215 222q0 79 26 143q24 60 51 60q35 0 35 -65t46 -89.5t168 -24.5q103 0 184 29q78 28 78 59q0 37 -19 82l-131 313l130 173l185 -512q30 -80 68 -110
q43 -33 133 -34q41 0 41 -35v-179q0 -36 -41 -36q-124 0 -200 61q-53 43 -99 137q-56 -90 -138 -139q70 -76 70 -186q0 -111 -64 -170q-62 -57 -173 -57q-99 0 -149 45q-43 42 -43 111q0 91 57 202z" />
    <glyph glyph-name="uni068A.fina" unicode="&#x68a;" horiz-adv-x="1047" 
d="M1095 36q0 -36 -41 -36q-124 0 -200 61q-53 43 -99 137q-124 -198 -375 -198q-280 0 -280 226q0 79 26 143q24 60 51 60q35 0 35 -65t46 -89.5t168 -24.5q103 0 184 29q78 28 78 59q0 37 -19 82l-131 313l130 173l185 -512q30 -80 68 -110q43 -33 133 -34q41 0 41 -35
v-179zM580 -287l-132 -133l-133 133l133 130z" />
    <glyph glyph-name="uni068B.fina" unicode="&#x68b;" horiz-adv-x="1047" 
d="M1095 36q0 -36 -41 -36q-124 0 -200 61q-53 43 -99 137q-124 -198 -375 -198q-280 0 -280 226q0 79 26 143q24 60 51 60q35 0 35 -65t46 -89.5t168 -24.5q103 0 184 29q78 28 78 59q0 37 -19 82l-131 313l130 173l185 -512q30 -80 68 -110q43 -33 133 -34q41 0 41 -35
v-179zM765 1198q0 -32 -12.5 -58t-32.5 -44q-41 -40 -99.5 -58t-126.5 -18q-72 0 -114 32q-29 27 -45 47t-16 29q0 7 4.5 10.5t11.5 3.5q9 0 22.5 -5.5t42.5 -5.5q18 0 22.5 8.5t4.5 28.5q0 14 -2 40t-6.5 59t-10.5 70.5t-12 73.5l82 74l65 -126l-49 6v-80q0 -20 -1.5 -37.5
t-4.5 -33.5l3 -1q41 53 83.5 83t83.5 30q16 0 34.5 -6.5t34.5 -21.5t27 -39.5t11 -60.5zM706 1169q0 9 -4 20t-13 20t-22.5 15.5t-33.5 6.5q-35 0 -73.5 -27t-77.5 -76l2 -6q49 1 90 5.5t70.5 10t45.5 14t16 17.5zM580 -287l-132 -133l-133 133l133 130z" />
    <glyph glyph-name="uni068F.fina" unicode="&#x68f;" horiz-adv-x="1047" 
d="M513 1275l-132 130l132 133l133 -133zM1095 36q0 -36 -41 -36q-124 0 -200 61q-53 43 -99 137q-124 -198 -375 -198q-280 0 -280 226q0 79 26 143q24 60 51 60q35 0 35 -65t46 -89.5t168 -24.5q103 0 184 29q78 28 78 59q0 37 -19 82l-131 313l130 173l185 -512
q30 -80 68 -110q43 -33 133 -34q41 0 41 -35v-179zM642 1022l-132 130l132 133l133 -133zM781 1279l-133 130l133 133l133 -133z" />
    <glyph glyph-name="uni0690.fina" unicode="&#x690;" horiz-adv-x="1047" 
d="M646 1424l-133 -133l-132 133l132 130zM1095 36q0 -36 -41 -36q-124 0 -200 61q-53 43 -99 137q-124 -198 -375 -198q-280 0 -280 226q0 79 26 143q24 60 51 60q35 0 35 -65t46 -89.5t168 -24.5q103 0 184 29q78 28 78 59q0 37 -19 82l-131 313l130 173l185 -512
q30 -80 68 -110q43 -33 133 -34q41 0 41 -35v-179zM914 1419l-133 -133l-133 133l133 131zM646 1160l-133 -133l-132 133l132 130zM914 1155l-133 -133l-133 133l133 130z" />
    <glyph glyph-name="uni0692.fina" unicode="&#x692;" horiz-adv-x="828" 
d="M876 36q0 -36 -42 -36q-119 0 -168 26q7 -27 7 -74q0 -51 -23 -136q-30 -100 -73 -170q-110 -174 -166 -174q-90 0 -242 18q-169 19 -169 38t89 50q170 59 325 198q147 132 147 208t-177 258l103 234q91 -131 149 -174q76 -55 198 -52q42 1 42 -35v-179zM364 676
l-198 287h91l185 -160l183 160h94l-202 -287h-153z" />
    <glyph glyph-name="uni0693.fina" unicode="&#x693;" horiz-adv-x="828" 
d="M370 -527h-25q-51 -43 -51 -113q0 -79 146 -79q38 0 77.5 16t39.5 33q0 33 -80 87q-62 42 -107 56zM261 -520q-42 3 -92 10q-169 19 -169 38t89 50q170 59 325 198q147 132 147 208t-177 258l103 234q91 -131 149 -174q76 -55 198 -52q42 1 42 -35v-179q0 -36 -42 -36
q-119 0 -168 26q7 -27 7 -74q0 -51 -23 -136q-30 -100 -73 -170q-28 -44 -52 -77q13 -11 26 -23q81 -80 81 -198q0 -111 -64 -171q-61 -57 -173 -57q-98 0 -148 45q-44 42 -44 112q0 92 58 203z" />
    <glyph glyph-name="uni0694.fina" unicode="&#x694;" horiz-adv-x="828" 
d="M876 36q0 -36 -42 -36q-51 0 -97.5 7t-70.5 19q5 -15 6 -34t1 -40t-6 -57t-17.5 -78.5t-30 -87.5t-42.5 -83q-35 -55 -61 -89t-46 -53t-34 -25.5t-25 -6.5q-24 0 -63.5 2t-85.5 5.5t-92.5 9t-84.5 12t-61.5 13.5t-23.5 14q0 5 3.5 10t13 10.5t27 12.5t45.5 17
q59 20 116.5 51.5t110.5 69t97.5 77.5t77.5 78t51.5 72t18.5 58q0 42 -42.5 103t-134.5 155l103 234q40 -60 75.5 -103t73.5 -71.5t85.5 -41t112.5 -10.5q42 0 42 -35v-179zM411 -739l119 121l120 -121l-120 -119z" />
    <glyph glyph-name="uni0695.fina" unicode="&#x695;" horiz-adv-x="828" 
d="M876 36q0 -36 -42 -36q-119 0 -168 26q7 -27 7 -74q0 -51 -23 -136q-30 -100 -73 -170q-110 -174 -166 -174q-90 0 -242 18q-169 19 -169 38t89 50q170 59 325 198q147 132 147 208t-177 258l103 234q91 -131 149 -174q76 -55 198 -52q42 1 42 -35v-179zM281 -922
l-199 287h91l185 -160l183 160h94l-202 -287h-152z" />
    <glyph glyph-name="uni0696.fina" unicode="&#x696;" horiz-adv-x="828" 
d="M876 36q0 -36 -42 -36q-51 0 -97.5 7t-70.5 19q5 -15 6 -34t1 -40t-6 -57t-17.5 -78.5t-30 -87.5t-42.5 -83q-35 -55 -61 -89t-46 -53t-34 -25.5t-25 -6.5q-24 0 -63.5 2t-85.5 5.5t-92.5 9t-84.5 12t-61.5 13.5t-23.5 14q0 5 3.5 10t13 10.5t27 12.5t45.5 17
q59 20 116.5 51.5t110.5 69t97.5 77.5t77.5 78t51.5 72t18.5 58q0 42 -42.5 103t-134.5 155l103 234q40 -60 75.5 -103t73.5 -71.5t85.5 -41t112.5 -10.5q42 0 42 -35v-179zM153 -43l119 121l121 -121l-121 -119zM411 -739l119 121l120 -121l-120 -119z" />
    <glyph glyph-name="uni0697.fina" unicode="&#x697;" horiz-adv-x="828" 
d="M876 36q0 -36 -42 -36q-51 0 -97.5 7t-70.5 19q5 -15 6 -34t1 -40t-6 -57t-17.5 -78.5t-30 -87.5t-42.5 -83q-35 -55 -61 -89t-46 -53t-34 -25.5t-25 -6.5q-24 0 -63.5 2t-85.5 5.5t-92.5 9t-84.5 12t-61.5 13.5t-23.5 14q0 5 3.5 10t13 10.5t27 12.5t45.5 17
q59 20 116.5 51.5t110.5 69t97.5 77.5t77.5 78t51.5 72t18.5 58q0 42 -42.5 103t-134.5 155l103 234q40 -60 75.5 -103t73.5 -71.5t85.5 -41t112.5 -10.5q42 0 42 -35v-179zM130 785l120 121l120 -121l-120 -119zM403 785l119 121l120 -121l-120 -119z" />
    <glyph glyph-name="uni0699.fina" unicode="&#x699;" horiz-adv-x="828" 
d="M876 36q0 -36 -42 -36q-51 0 -97.5 7t-70.5 19q5 -15 6 -34t1 -40t-6 -57t-17.5 -78.5t-30 -87.5t-42.5 -83q-35 -55 -61 -89t-46 -53t-34 -25.5t-25 -6.5q-24 0 -63.5 2t-85.5 5.5t-92.5 9t-84.5 12t-61.5 13.5t-23.5 14q0 5 3.5 10t13 10.5t27 12.5t45.5 17
q59 20 116.5 51.5t110.5 69t97.5 77.5t77.5 78t51.5 72t18.5 58q0 42 -42.5 103t-134.5 155l103 234q40 -60 75.5 -103t73.5 -71.5t85.5 -41t112.5 -10.5q42 0 42 -35v-179zM130 1030l120 122l120 -122l-120 -119zM403 1030l119 122l120 -122l-120 -119zM130 785l120 121
l120 -121l-120 -119zM403 785l119 121l120 -121l-120 -119z" />
    <glyph glyph-name="uni069A.init" unicode="&#x69a;" horiz-adv-x="1335" 
d="M1263 364q0 -145 -62 -248q-70 -116 -186 -116q-86 0 -141 40q-39 28 -83 98q-78 -138 -192 -138q-86 0 -139 40q-41 29 -81 98q-61 -72 -127 -102q-78 -36 -200 -36h-57q-41 0 -41 36v179q0 35 41 35h97q119 0 183 54q55 49 55 125q0 68 46 68q44 0 44 -68
q0 -55 36 -110q46 -69 119 -69q75 0 121 69q36 55 36 110q0 68 45 68q44 0 44 -68q0 -55 38 -110q48 -69 128 -69q165 0 165 90q0 35 -97 153l110 184q98 -129 98 -313zM928 874l-133 -133l-132 133l132 130zM924 -321l-133 -133l-132 133l132 131z" />
    <glyph glyph-name="uni069A.medi" unicode="&#x69a;" horiz-adv-x="1451" 
d="M1499 36q0 -36 -42 -36h-23q-135 0 -226 138q-80 -138 -193 -138q-86 0 -141 40q-39 28 -83 98q-78 -138 -192 -138q-86 0 -139 40q-41 29 -81 98q-61 -72 -127 -102q-78 -36 -200 -36h-57q-41 0 -41 36v179q0 35 41 35h97q119 0 183 54q55 49 55 125q0 68 46 68
q44 0 44 -68q0 -55 36 -110q46 -69 119 -69q81 0 131 69q37 55 37 110q0 68 45 68q44 0 44 -68q0 -55 38 -110q46 -69 123 -69q85 0 135 69q39 54 39 110q0 68 44 68q45 0 45 -68q0 -55 45 -110q59 -69 156 -69q42 0 42 -35v-179zM928 883l-133 -133l-132 133l132 130z
M924 -321l-133 -133l-132 133l132 131z" />
    <glyph glyph-name="uni069A.fina" unicode="&#x69a;" horiz-adv-x="1933" 
d="M1979 36q0 -36 -41 -36h-25q-134 0 -226 138q-79 -138 -188 -138q-108 0 -186 130q-13 -49 -58.5 -89.5t-85.5 -40.5q-55 0 -73 13v-99q0 -225 -158 -344q-151 -115 -424 -115q-199 0 -311 98q-122 105 -122 313q0 123 84 291q52 103 88 103q35 0 35 -34l-40 -108
q-40 -109 -40 -170q0 -123 102 -186q93 -57 250 -57q165 0 290 46q158 59 157 167q-1 100 -217 324l103 224q90 -123 140.5 -169.5t97.5 -46.5q69 0 112 69q36 56 36 110q0 68 45 68q44 0 44 -68q0 -54 36 -110q44 -69 112 -69q57 0 97 69q33 57 33 110q0 68 46 68
q44 0 44 -68q0 -55 46 -110q58 -69 156 -69q41 0 41 -35v-179zM1455 883l-133 -133l-132 133l132 130zM1469 -321l-133 -133l-132 133l132 131z" />
    <glyph glyph-name="uni069B.init" unicode="&#x69b;" horiz-adv-x="1335" 
d="M1263 364q0 -145 -62 -248q-70 -116 -186 -116q-86 0 -141 40q-39 28 -83 98q-78 -138 -192 -138q-86 0 -139 40q-41 29 -81 98q-61 -72 -127 -102q-78 -36 -200 -36h-57q-41 0 -41 36v179q0 35 41 35h97q119 0 183 54q55 49 55 125q0 68 46 68q44 0 44 -68
q0 -55 36 -110q46 -69 119 -69q75 0 121 69q36 55 36 110q0 68 45 68q44 0 44 -68q0 -55 38 -110q48 -69 128 -69q165 0 165 90q0 35 -97 153l110 184q98 -129 98 -313zM788 -237l-120 -121l-119 121l119 119zM924 -474l-119 -121l-120 121l120 120zM1060 -237l-119 -121
l-120 121l120 119z" />
    <glyph glyph-name="uni069B.medi" unicode="&#x69b;" horiz-adv-x="1451" 
d="M1499 36q0 -36 -42 -36h-23q-135 0 -226 138q-80 -138 -193 -138q-86 0 -141 40q-39 28 -83 98q-78 -138 -192 -138q-86 0 -139 40q-41 29 -81 98q-61 -72 -127 -102q-78 -36 -200 -36h-57q-41 0 -41 36v179q0 35 41 35h97q119 0 183 54q55 49 55 125q0 68 46 68
q44 0 44 -68q0 -55 36 -110q46 -69 119 -69q81 0 131 69q37 55 37 110q0 68 45 68q44 0 44 -68q0 -55 38 -110q46 -69 123 -69q85 0 135 69q39 54 39 110q0 68 44 68q45 0 45 -68q0 -55 45 -110q59 -69 156 -69q42 0 42 -35v-179zM788 -237l-120 -121l-119 121l119 119z
M924 -474l-119 -121l-120 121l120 120zM1060 -237l-119 -121l-120 121l120 119z" />
    <glyph glyph-name="uni069B.fina" unicode="&#x69b;" horiz-adv-x="1933" 
d="M1979 36q0 -36 -41 -36h-25q-134 0 -226 138q-79 -138 -188 -138q-108 0 -186 130q-13 -49 -58.5 -89.5t-85.5 -40.5q-55 0 -73 13v-99q0 -225 -158 -344q-151 -115 -424 -115q-199 0 -311 98q-122 105 -122 313q0 123 84 291q52 103 88 103q35 0 35 -34l-40 -108
q-40 -109 -40 -170q0 -123 102 -186q93 -57 250 -57q165 0 290 46q158 59 157 167q-1 100 -217 324l103 224q90 -123 140.5 -169.5t97.5 -46.5q69 0 112 69q36 56 36 110q0 68 45 68q44 0 44 -68q0 -54 36 -110q44 -69 112 -69q57 0 97 69q33 57 33 110q0 68 46 68
q44 0 44 -68q0 -55 46 -110q58 -69 156 -69q41 0 41 -35v-179zM1424 -237l-119 -121l-120 121l120 119zM1561 -474l-120 -121l-120 121l120 120zM1696 -237l-119 -121l-119 121l119 119z" />
    <glyph glyph-name="uni069C.init" unicode="&#x69c;" horiz-adv-x="1335" 
d="M917 1109l-120 -121l-120 121l120 121zM1053 871l-120 -119l-119 119l119 122zM780 871l-119 -119l-119 119l119 122zM1263 364q0 -145 -62 -248q-70 -116 -186 -116q-86 0 -141 40q-39 28 -83 98q-78 -138 -192 -138q-86 0 -139 40q-41 29 -81 98q-61 -72 -127 -102
q-78 -36 -200 -36h-57q-41 0 -41 36v179q0 35 41 35h97q119 0 183 54q55 49 55 125q0 68 46 68q44 0 44 -68q0 -55 36 -110q46 -69 119 -69q75 0 121 69q36 55 36 110q0 68 45 68q44 0 44 -68q0 -55 38 -110q48 -69 128 -69q165 0 165 90q0 35 -97 153l110 184
q98 -129 98 -313zM788 -237l-120 -121l-119 121l119 119zM924 -474l-119 -121l-120 121l120 120zM1060 -237l-119 -121l-120 121l120 119z" />
    <glyph glyph-name="uni069C.medi" unicode="&#x69c;" horiz-adv-x="1451" 
d="M912 1109l-119 -121l-119 121l119 121zM1049 871l-119 -119l-120 119l120 122zM777 871l-120 -119l-119 119l119 122zM1499 36q0 -36 -42 -36h-23q-135 0 -226 138q-80 -138 -193 -138q-86 0 -141 40q-39 28 -83 98q-78 -138 -192 -138q-86 0 -139 40q-41 29 -81 98
q-61 -72 -127 -102q-78 -36 -200 -36h-57q-41 0 -41 36v179q0 35 41 35h97q119 0 183 54q55 49 55 125q0 68 46 68q44 0 44 -68q0 -55 36 -110q46 -69 119 -69q81 0 131 69q37 55 37 110q0 68 45 68q44 0 44 -68q0 -55 38 -110q46 -69 123 -69q85 0 135 69q39 54 39 110
q0 68 44 68q45 0 45 -68q0 -55 45 -110q59 -69 156 -69q42 0 42 -35v-179zM788 -237l-120 -121l-119 121l119 119zM924 -474l-119 -121l-120 121l120 120zM1060 -237l-119 -121l-120 121l120 119z" />
    <glyph glyph-name="uni069C.fina" unicode="&#x69c;" horiz-adv-x="1933" 
d="M1979 36q0 -36 -41 -36h-25q-134 0 -226 138q-79 -138 -188 -138q-108 0 -186 130q-13 -49 -58.5 -89.5t-85.5 -40.5q-55 0 -73 13v-99q0 -225 -158 -344q-151 -115 -424 -115q-199 0 -311 98q-122 105 -122 313q0 123 84 291q52 103 88 103q35 0 35 -34l-40 -108
q-40 -109 -40 -170q0 -123 102 -186q93 -57 250 -57q165 0 290 46q158 59 157 167q-1 100 -217 324l103 224q90 -123 140.5 -169.5t97.5 -46.5q69 0 112 69q36 56 36 110q0 68 45 68q44 0 44 -68q0 -54 36 -110q44 -69 112 -69q57 0 97 69q33 57 33 110q0 68 46 68
q44 0 44 -68q0 -55 46 -110q58 -69 156 -69q41 0 41 -35v-179zM1581 871l-119 -119l-119 119l119 122zM1309 871l-119 -119l-120 119l120 122zM1445 1109l-120 -121l-119 121l119 121zM1424 -237l-119 -121l-120 121l120 119zM1561 -474l-120 -121l-120 121l120 120z
M1696 -237l-119 -121l-119 121l119 119z" />
    <glyph glyph-name="uni069D.init" unicode="&#x69d;" horiz-adv-x="1442" 
d="M1370 442q0 -130 -101 -253q-153 -189 -472 -189q-183 0 -244 12q-138 27 -198 126q-74 -85 -147 -112q-69 -26 -213 -26q-41 0 -41 36v179q0 35 41 35h46q144 0 214 69q48 49 48 110q0 68 45 68q44 0 44 -68q0 -59 34 -104q48 -64 148 -64q328 426 568 426
q103 0 164 -63q64 -66 64 -182zM1220 351q0 55 -63 98q-60 40 -123 40q-157 0 -348 -235q41 -4 194 -4q340 0 340 101zM897 -237l-119 -121l-120 121l120 119zM1169 -237l-119 -121l-119 121l119 119z" />
    <glyph glyph-name="uni069D.medi" unicode="&#x69d;" horiz-adv-x="1420" 
d="M1467 36q0 -36 -41 -36q-171 0 -233 112q-122 -75 -222 -96q-83 -16 -285 -16q-247 0 -331 138q-74 -85 -147 -112q-69 -26 -213 -26q-41 0 -41 36v179q0 35 41 35h46q143 0 213 69q49 49 49 110q0 68 45 68q44 0 44 -68q0 -57 39 -108q52 -67 143 -60q334 426 568 426
q103 0 164 -63q64 -66 64 -182q0 -61 -41 -155l-15 -31q61 -5 112 -6q41 0 41 -35v-179zM1220 351q0 55 -63 98q-60 40 -123 40q-157 0 -348 -235q41 -4 194 -4q340 0 340 101zM915 -237l-119 -121l-120 121l120 119zM1188 -237l-120 -121l-119 121l119 119z" />
    <glyph glyph-name="uni069D.fina" unicode="&#x69d;" horiz-adv-x="1904" 
d="M1950 36q0 -36 -41 -36q-170 0 -233 112q-166 -112 -395 -112q-101 0 -198 36q17 -80 17 -122q1 -225 -159 -344q-153 -115 -427 -115q-199 0 -311 98q-122 105 -122 313q0 123 84 291q52 103 88 103q35 0 35 -34l-40 -108q-40 -109 -40 -170q0 -123 102 -186
q93 -57 250 -57q165 0 290 46q158 59 157 167q-1 100 -217 324l103 224q95 -133 177 -190q317 411 556 411q102 0 163 -63q65 -66 65 -182q0 -61 -42 -155q-6 -16 -15 -31q54 -6 111 -6q42 0 42 -35v-179zM1704 351q0 55 -63 98q-60 40 -123 40q-157 0 -349 -235
q41 -4 194 -4q341 0 341 101zM1460 -237l-119 -121l-119 121l119 119zM1733 -237l-120 -121l-119 121l119 119z" />
    <glyph glyph-name="uni069E.init" unicode="&#x69e;" horiz-adv-x="1442" 
d="M1370 442q0 -130 -101 -253q-153 -189 -472 -189q-183 0 -244 12q-138 27 -198 126q-74 -85 -147 -112q-69 -26 -213 -26q-41 0 -41 36v179q0 35 41 35h46q144 0 214 69q48 49 48 110q0 68 45 68q44 0 44 -68q0 -59 34 -104q48 -64 148 -64q328 426 568 426
q103 0 164 -63q64 -66 64 -182zM1220 351q0 55 -63 98q-60 40 -123 40q-157 0 -348 -235q41 -4 194 -4q340 0 340 101zM1177 1020l-120 -119l-119 119l119 122zM904 1020l-119 -119l-119 119l119 122zM1040 1258l-119 -120l-120 120l120 121z" />
    <glyph glyph-name="uni069E.medi" unicode="&#x69e;" horiz-adv-x="1420" 
d="M1467 36q0 -36 -41 -36q-171 0 -233 112q-122 -75 -222 -96q-83 -16 -285 -16q-247 0 -331 138q-74 -85 -147 -112q-69 -26 -213 -26q-41 0 -41 36v179q0 35 41 35h46q143 0 213 69q49 49 49 110q0 68 45 68q44 0 44 -68q0 -57 39 -108q52 -67 143 -60q334 426 568 426
q103 0 164 -63q64 -66 64 -182q0 -61 -41 -155l-15 -31q61 -5 112 -6q41 0 41 -35v-179zM1220 351q0 55 -63 98q-60 40 -123 40q-157 0 -348 -235q37 -4 190 -4q344 0 344 101zM1179 1020l-119 -119l-119 119l119 122zM907 1020l-119 -119l-120 119l120 122zM1043 1258
l-120 -120l-119 120l119 121z" />
    <glyph glyph-name="uni069E.fina" unicode="&#x69e;" horiz-adv-x="1904" 
d="M1950 36q0 -36 -41 -36q-170 0 -233 112q-166 -112 -395 -112q-101 0 -198 36q17 -80 17 -122q1 -225 -159 -344q-153 -115 -427 -115q-199 0 -311 98q-122 105 -122 313q0 123 84 291q52 103 88 103q35 0 35 -34l-40 -108q-40 -109 -40 -170q0 -123 102 -186
q93 -57 250 -57q165 0 290 46q158 59 157 167q-1 100 -217 324l103 224q95 -133 177 -190q317 411 556 411q102 0 163 -63q65 -66 65 -182q0 -61 -42 -155q-6 -16 -15 -31q54 -6 111 -6q42 0 42 -35v-179zM1704 351q0 55 -63 98q-60 40 -123 40q-157 0 -349 -235
q41 -4 194 -4q341 0 341 101zM1670 1020l-120 -119l-119 119l119 122zM1397 1020l-119 -119l-119 119l119 122zM1533 1258l-119 -120l-120 120l120 121z" />
    <glyph glyph-name="uni069F.init" unicode="&#x69f;" horiz-adv-x="1133" 
d="M1056 442q0 -163 -145 -286q-184 -156 -537 -156h-379q-41 0 -41 36v179q0 35 41 35h205q13 32 13 110q0 250 -82 765l121 119q42 41 51 41q12 0 18 -22q39 -132 89 -246q15 -38 -5 -38q-16 0 -63 23q7 -78 7 -274q0 -198 -42 -370l3 -4q322 333 519 333q102 0 164 -63
q63 -66 63 -182zM907 349q0 55 -64 99q-59 41 -122 41q-133 0 -381 -235l222 -4q345 -6 345 99zM880 1152l-121 -121l-119 121l119 121zM1015 914l-119 -120l-119 120l119 122zM743 914l-119 -120l-120 120l120 122z" />
    <glyph glyph-name="uni069F.medi" unicode="&#x69f;" horiz-adv-x="1139" 
d="M1188 36q0 -36 -42 -36q-124 0 -184 31q-51 25 -84 90q-115 -121 -655 -121h-228q-41 0 -41 36v179q0 35 41 35h205q13 32 13 110q0 250 -82 765l121 119q42 41 51 41q12 0 18 -22q39 -132 89 -246q15 -38 -5 -38q-16 0 -63 23q7 -78 7 -274q0 -198 -42 -370l3 -4
q322 333 519 333q102 0 164 -61q63 -64 63 -170q0 -77 -59 -200q29 -6 89 -6h60q42 0 42 -35v-179zM907 349q0 55 -64 99q-59 41 -122 41q-133 0 -381 -235l222 -4q345 -6 345 99zM880 1152l-121 -121l-119 121l119 121zM1015 914l-119 -120l-119 120l119 122zM743 914
l-119 -120l-120 120l120 122z" />
    <glyph glyph-name="uni069F.fina" unicode="&#x69f;" horiz-adv-x="1347" 
d="M1393 36q0 -36 -41 -36q-125 0 -185 31q-51 25 -84 90q-115 -121 -676 -121q-149 0 -251 118q-75 84 -75 130q0 18 16 17l102 -7l206 -8q14 32 14 110q0 250 -82 765l121 119q41 41 50 41q12 0 18 -22q40 -132 89 -246q15 -38 -4 -38q-15 0 -64 23q8 -78 8 -274
q0 -198 -43 -370l4 -4q321 333 519 333q101 0 163 -61q64 -64 64 -170q0 -77 -60 -200q31 -6 90 -6h60q41 0 41 -35v-179zM1113 349q0 55 -64 99q-60 41 -123 41q-133 0 -380 -235l222 -4q345 -6 345 99zM1088 1152l-121 -121l-119 121l119 121zM1223 914l-119 -120
l-119 120l119 122zM951 914l-119 -120l-120 120l120 122z" />
    <glyph glyph-name="uni06A0.init" unicode="&#x6a0;" horiz-adv-x="1022" 
d="M950 324l-116 -235l-87 -7q-122 -8 -491 -56q-164 -26 -261 -26q-41 0 -41 36v179q0 35 41 35h50l213 6l-19 27q-57 50 -57 132q0 137 130 269.5t274 132.5q97 0 193 -92q87 -83 87 -137q0 -17 -24 -17q4 0 -59 16q-66 16 -156 16q-297 0 -297 -105q0 -55 65 -116
q86 -81 234 -81q207 0 321 23zM685 1358l-121 -120l-119 120l119 122zM820 1121l-119 -120l-119 120l119 122zM548 1121l-119 -120l-120 120l120 122z" />
    <glyph glyph-name="uni06A0.medi" unicode="&#x6a0;" horiz-adv-x="828" 
d="M876 36q0 -36 -42 -36h-65q-171 0 -315 173q-82 -98 -183 -138q-89 -35 -228 -35h-48q-41 0 -41 36v179q0 35 41 35h118q109 0 242 49v16q-40 43 -80 85q-71 73 -91 77q-29 8 -29 27q0 73 61 127q77 69 221 69q125 0 202 -42q91 -49 91 -141q0 -49 -67 -118
q-59 -60 -110 -84v-11q103 -54 257 -54h24q42 0 42 -35v-179zM566 1267l-120 -120l-119 120l119 121zM702 1029l-119 -119l-120 119l120 123zM430 1029l-120 -119l-119 119l119 123z" />
    <glyph glyph-name="uni06A0.fina" unicode="&#x6a0;" horiz-adv-x="1166" 
d="M1213 36q0 -36 -42 -36h-118q-101 0 -233 86q-125 81 -210 194q-307 -134 -307 -381q0 -170 147 -248q113 -62 292 -62q138 0 248 19q94 16 91 18q10 0 10 -9q0 -17 -40 -54q-55 -51 -145 -83q-122 -43 -289 -43q-278 0 -421 124q-124 106 -124 277q0 314 465 513
q-40 40 -81 79q-72 67 -91 72q-28 6 -28 26q0 73 61 128q77 70 221 70q124 0 202 -43q91 -49 91 -142q0 -47 -67 -110q-51 -47 -111 -80v-9q85 -58 199 -78q83 -14 238 -14q42 0 42 -35v-179zM747 1267l-120 -120l-120 120l120 121zM883 1029l-120 -119l-119 119l119 123z
M610 1029l-119 -119l-119 119l119 123z" />
    <glyph glyph-name="uni06A1.init" unicode="&#x6a1;" horiz-adv-x="730" 
d="M640 384q0 -216 -125 -307q-106 -77 -331 -77h-189q-41 0 -41 36v179q0 35 41 35h237q98 0 195 22q120 29 120 75q0 28 -14 47q-119 -19 -193 -19q-100 0 -148 19q-74 31 -74 113q0 130 59 257q73 156 185 156q278 0 278 -536zM481 582q-9 39 -46 82q-46 52 -97 52
q-45 0 -76.5 -22.5t-31.5 -59.5q0 -66 138 -66q75 0 113 14z" />
    <glyph glyph-name="uni06A1.medi" unicode="&#x6a1;" horiz-adv-x="828" 
d="M876 36q0 -36 -42 -36h-39q-154 0 -355 112q-95 -64 -183 -87q-90 -25 -234 -25h-28q-41 0 -41 36v179q0 35 41 35h87q105 0 180 15q-69 72 -69 175q0 98 74 215q91 139 214 139q86 0 144.5 -87.5t58.5 -219.5q0 -64 -29 -132q-24 -60 -54 -86q85 -19 138 -19h95
q42 0 42 -35v-179zM590 438q0 47 -44.5 94.5t-91.5 47.5q-45 0 -105 -34q-63 -38 -63 -76q0 -45 60 -101q57 -54 91 -54q31 0 92 46.5t61 76.5z" />
    <glyph glyph-name="uni06A1.fina" unicode="&#x6a1;" horiz-adv-x="1614" 
d="M1660 36q0 -36 -41 -36h-23q-215 0 -376 116q-61 -44 -217 -88q-182 -51 -349 -51q-276 0 -407 81q-143 88 -143 285q0 102 46 199q41 88 73 88q41 0 41 -37q0 -4 -16.5 -46.5t-16.5 -94.5q0 -112 124 -171q113 -53 297 -53q263 0 396 37q-68 67 -68 175q0 98 73 215
q90 139 215 139q86 0 144 -87.5t58 -219.5q0 -64 -28 -132q-24 -60 -54 -86q74 -19 138 -19h93q41 0 41 -35v-179zM1377 438q0 47 -45 94.5t-92 47.5q-45 0 -104 -34q-64 -38 -64 -76q0 -45 61 -101q56 -54 91 -54q30 0 91.5 46.5t61.5 76.5z" />
    <glyph glyph-name="uni06A2.init" unicode="&#x6a2;" horiz-adv-x="730" 
d="M640 384q0 -216 -125 -307q-106 -77 -331 -77h-189q-41 0 -41 36v179q0 35 41 35h237q98 0 195 22q120 29 120 75q0 28 -14 47q-119 -19 -193 -19q-100 0 -148 19q-74 31 -74 113q0 130 59 257q73 156 185 156q278 0 278 -536zM481 582q-9 39 -46 82q-46 52 -97 52
q-45 0 -76.5 -22.5t-31.5 -59.5q0 -66 138 -66q75 0 113 14zM478 -321l-133 -133l-132 133l132 131z" />
    <glyph glyph-name="uni06A2.medi" unicode="&#x6a2;" horiz-adv-x="828" 
d="M876 36q0 -36 -42 -36h-39q-154 0 -355 112q-95 -64 -183 -87q-90 -25 -234 -25h-28q-41 0 -41 36v179q0 35 41 35h87q105 0 180 15q-69 72 -69 175q0 98 74 215q91 139 214 139q86 0 144.5 -87.5t58.5 -219.5q0 -64 -29 -132q-24 -60 -54 -86q85 -19 138 -19h95
q42 0 42 -35v-179zM590 438q0 47 -44.5 94.5t-91.5 47.5q-45 0 -105 -34q-63 -38 -63 -76q0 -45 60 -101q57 -54 91 -54q31 0 92 46.5t61 76.5zM569 -321l-133 -133l-132 133l132 131z" />
    <glyph glyph-name="uni06A2.fina" unicode="&#x6a2;" horiz-adv-x="1614" 
d="M1660 36q0 -36 -41 -36h-23q-215 0 -376 116q-61 -44 -217 -88q-182 -51 -349 -51q-276 0 -407 81q-143 88 -143 285q0 102 46 199q41 88 73 88q41 0 41 -37q0 -4 -16.5 -46.5t-16.5 -94.5q0 -112 124 -171q113 -53 297 -53q263 0 396 37q-68 67 -68 175q0 98 73 215
q90 139 215 139q86 0 144 -87.5t58 -219.5q0 -64 -28 -132q-24 -60 -54 -86q74 -19 138 -19h93q41 0 41 -35v-179zM1377 438q0 47 -45 94.5t-92 47.5q-45 0 -104 -34q-64 -38 -64 -76q0 -45 61 -101q56 -54 91 -54q30 0 91.5 46.5t61.5 76.5zM1360 -321l-133 -133l-132 133
l132 131z" />
    <glyph glyph-name="uni06A3.init" unicode="&#x6a3;" horiz-adv-x="730" 
d="M488 1170l-133 -132l-132 132l132 130zM640 384q0 -216 -125 -307q-106 -77 -331 -77h-189q-41 0 -41 36v179q0 35 41 35h237q98 0 195 22q120 29 120 75q0 28 -14 47q-119 -19 -193 -19q-100 0 -148 19q-74 31 -74 113q0 130 59 257q73 156 185 156q278 0 278 -536z
M481 582q-9 39 -46 82q-46 52 -97 52q-45 0 -76.5 -22.5t-31.5 -59.5q0 -66 138 -66q75 0 113 14zM478 -321l-133 -133l-132 133l132 131z" />
    <glyph glyph-name="uni06A3.medi" unicode="&#x6a3;" horiz-adv-x="828" 
d="M570 1104l-133 -132l-132 132l132 131zM876 36q0 -36 -42 -36h-39q-154 0 -355 112q-95 -64 -183 -87q-90 -25 -234 -25h-28q-41 0 -41 36v179q0 35 41 35h87q105 0 180 15q-69 72 -69 175q0 98 74 215q91 139 214 139q86 0 144.5 -87.5t58.5 -219.5q0 -64 -29 -132
q-24 -60 -54 -86q85 -19 138 -19h95q42 0 42 -35v-179zM590 438q0 47 -44.5 94.5t-91.5 47.5q-45 0 -105 -34q-63 -38 -63 -76q0 -45 60 -101q57 -54 91 -54q31 0 92 46.5t61 76.5zM560 -321l-133 -133l-132 133l132 131z" />
    <glyph glyph-name="uni06A3.fina" unicode="&#x6a3;" horiz-adv-x="1614" 
d="M1356 1104l-132 -132l-133 132l133 131zM1660 36q0 -36 -41 -36h-23q-215 0 -376 116q-61 -44 -217 -88q-182 -51 -349 -51q-276 0 -407 81q-143 88 -143 285q0 102 46 199q41 88 73 88q41 0 41 -37q0 -4 -16.5 -46.5t-16.5 -94.5q0 -112 124 -171q113 -53 297 -53
q263 0 396 37q-68 67 -68 175q0 98 73 215q90 139 215 139q86 0 144 -87.5t58 -219.5q0 -64 -28 -132q-24 -60 -54 -86q74 -19 138 -19h93q41 0 41 -35v-179zM1377 438q0 47 -45 94.5t-92 47.5q-45 0 -104 -34q-64 -38 -64 -76q0 -45 61 -101q56 -54 91 -54q30 0 91.5 46.5
t61.5 76.5zM923 -321l-133 -133l-132 133l132 131z" />
    <glyph glyph-name="uni06A5.init" unicode="&#x6a5;" horiz-adv-x="730" 
d="M640 384q0 -216 -125 -307q-106 -77 -331 -77h-189q-41 0 -41 36v179q0 35 41 35h237q98 0 195 22q120 29 120 75q0 28 -14 47q-119 -19 -193 -19q-100 0 -148 19q-74 31 -74 113q0 130 59 257q73 156 185 156q278 0 278 -536zM481 582q-9 39 -46 82q-46 52 -97 52
q-45 0 -76.5 -22.5t-31.5 -59.5q0 -66 138 -66q75 0 113 14zM323 -237l-119 -121l-120 121l120 119zM460 -474l-120 -121l-120 121l120 120zM595 -237l-119 -121l-119 121l119 119z" />
    <glyph glyph-name="uni06A5.medi" unicode="&#x6a5;" horiz-adv-x="828" 
d="M876 36q0 -36 -42 -36h-39q-154 0 -355 112q-95 -64 -183 -87q-90 -25 -234 -25h-28q-41 0 -41 36v179q0 35 41 35h87q105 0 180 15q-69 72 -69 175q0 98 74 215q91 139 214 139q86 0 144.5 -87.5t58.5 -219.5q0 -64 -29 -132q-24 -60 -54 -86q85 -19 138 -19h95
q42 0 42 -35v-179zM590 438q0 47 -44.5 94.5t-91.5 47.5q-45 0 -105 -34q-63 -38 -63 -76q0 -45 60 -101q57 -54 91 -54q31 0 92 46.5t61 76.5zM423 -237l-119 -121l-120 121l120 119zM560 -474l-120 -121l-120 121l120 120zM696 -237l-120 -121l-119 121l119 119z" />
    <glyph glyph-name="uni06A5.fina" unicode="&#x6a5;" horiz-adv-x="1614" 
d="M1660 36q0 -36 -41 -36h-23q-215 0 -376 116q-61 -44 -217 -88q-182 -51 -349 -51q-276 0 -407 81q-143 88 -143 285q0 102 46 199q41 88 73 88q41 0 41 -37q0 -4 -16.5 -46.5t-16.5 -94.5q0 -112 124 -171q113 -53 297 -53q263 0 396 37q-68 67 -68 175q0 98 73 215
q90 139 215 139q86 0 144 -87.5t58 -219.5q0 -64 -28 -132q-24 -60 -54 -86q74 -19 138 -19h93q41 0 41 -35v-179zM1377 438q0 47 -45 94.5t-92 47.5q-45 0 -104 -34q-64 -38 -64 -76q0 -45 61 -101q56 -54 91 -54q30 0 91.5 46.5t61.5 76.5zM1160 -237l-119 -121l-120 121
l120 119zM1297 -474l-120 -121l-120 121l120 120zM1432 -237l-119 -121l-119 121l119 119z" />
    <glyph glyph-name="uni06A7.init" unicode="&#x6a7;" horiz-adv-x="730" 
d="M488 1170l-133 -132l-132 132l132 130zM640 384q0 -216 -125 -307q-106 -77 -331 -77h-189q-41 0 -41 36v179q0 35 41 35h237q98 0 195 22q120 29 120 75q0 28 -14 47q-119 -19 -193 -19q-100 0 -148 19q-74 31 -74 113q0 130 59 257q73 156 185 156q278 0 278 -536z
M481 582q-9 39 -46 82q-46 52 -97 52q-45 0 -76.5 -22.5t-31.5 -59.5q0 -66 138 -66q75 0 113 14z" />
    <glyph glyph-name="uni06A7.medi" unicode="&#x6a7;" horiz-adv-x="828" 
d="M570 1104l-133 -132l-132 132l132 131zM876 36q0 -36 -42 -36h-39q-154 0 -355 112q-95 -64 -183 -87q-90 -25 -234 -25h-28q-41 0 -41 36v179q0 35 41 35h87q105 0 180 15q-69 72 -69 175q0 98 74 215q91 139 214 139q86 0 144.5 -87.5t58.5 -219.5q0 -64 -29 -132
q-24 -60 -54 -86q85 -19 138 -19h95q42 0 42 -35v-179zM590 438q0 47 -44.5 94.5t-91.5 47.5q-45 0 -105 -34q-63 -38 -63 -76q0 -45 60 -101q57 -54 91 -54q31 0 92 46.5t61 76.5z" />
    <glyph glyph-name="uni06A7.fina" unicode="&#x6a7;" horiz-adv-x="1328" 
d="M1374 36q0 -36 -41 -36h-151v-56q0 -451 -668 -451q-200 0 -311 95q-122 105 -122 311q0 124 84 291q52 103 88 103q35 0 35 -33l-40 -109q-40 -108 -40 -169q0 -240 352 -240q185 0 332 41q197 55 197 163q0 18 -11 59q-96 -5 -202 -5q-248 0 -248 160q0 126 64 270
q78 170 186 170q126 0 206 -114q63 -92 87 -236h162q41 0 41 -35v-179zM1018 242q-19 68 -70 113q-47 42 -94 42q-38 0 -69 -26.5t-31 -57.5q0 -82 101 -82q98 0 163 11zM1016 892l-120 -119l-119 119l119 121z" />
    <glyph glyph-name="uni06A8.init" unicode="&#x6a8;" horiz-adv-x="730" 
d="M640 384q0 -216 -125 -307q-106 -77 -331 -77h-189q-41 0 -41 36v179q0 35 41 35h237q98 0 195 22q120 29 120 75q0 28 -14 47q-119 -19 -193 -19q-100 0 -148 19q-74 31 -74 113q0 130 59 257q73 156 185 156q278 0 278 -536zM481 582q-9 39 -46 82q-46 52 -97 52
q-45 0 -76.5 -22.5t-31.5 -59.5q0 -66 138 -66q75 0 113 14zM222 1377l119 122l120 -122l-120 -119zM85 1141l120 121l120 -121l-120 -120zM358 1141l119 121l120 -121l-120 -120z" />
    <glyph glyph-name="uni06A8.medi" unicode="&#x6a8;" horiz-adv-x="828" 
d="M876 36q0 -36 -42 -36h-39q-154 0 -355 112q-95 -64 -183 -87q-90 -25 -234 -25h-28q-41 0 -41 36v179q0 35 41 35h87q105 0 180 15q-69 72 -69 175q0 98 74 215q91 139 214 139q86 0 144.5 -87.5t58.5 -219.5q0 -64 -29 -132q-24 -60 -54 -86q85 -19 138 -19h95
q42 0 42 -35v-179zM590 438q0 47 -44.5 94.5t-91.5 47.5q-45 0 -105 -34q-63 -38 -63 -76q0 -45 60 -101q57 -54 91 -54q31 0 92 46.5t61 76.5zM318 1295l119 122l119 -122l-119 -119zM181 1059l119 121l120 -121l-120 -120zM453 1059l120 121l120 -121l-120 -120z" />
    <glyph glyph-name="uni06A8.fina" unicode="&#x6a8;" horiz-adv-x="1328" 
d="M1374 36q0 -36 -41 -36h-151v-56q0 -451 -668 -451q-200 0 -311 95q-122 105 -122 311q0 124 84 291q52 103 88 103q35 0 35 -33l-40 -109q-40 -108 -40 -169q0 -240 352 -240q185 0 332 41q197 55 197 163q0 18 -11 59q-96 -5 -202 -5q-248 0 -248 160q0 126 64 270
q78 170 186 170q126 0 206 -114q63 -92 87 -236h162q41 0 41 -35v-179zM1018 242q-19 68 -70 113q-47 42 -94 42q-38 0 -69 -26.5t-31 -57.5q0 -82 101 -82q98 0 163 11zM753 1125l120 121l119 -121l-119 -119zM617 888l119 121l120 -121l-120 -119zM889 888l119 121
l121 -121l-121 -119z" />
    <glyph glyph-name="uni06AA.init" unicode="&#x6aa;" horiz-adv-x="1313" 
d="M1096 274q17 12 17 28v5q0 67 -88 97q-72 20 -195 20h-546q-121 0 -130 43q-64 149 -64 167l-2 9q0 69 90 193q120 142 210 203q143 103 248 146l75 27q0 -2 2 -2q-27 -212 -31 -214q-100 -39 -221 -113q-193 -131 -245 -234h542q232 0 304 -37q44 -13 113 -80
q48 -64 48 -167q0 -247 -216 -334q-90 -31 -185 -31h-827q-41 0 -41 36v179q0 35 41 35h643q439 -7 458 24z" />
    <glyph glyph-name="uni06AA.medi" unicode="&#x6aa;" horiz-adv-x="1436" 
d="M1136 137q-53 -69 -147 -106q-90 -31 -185 -31h-809q-41 0 -41 36v179q0 35 41 35h625q439 -7 458 24q17 12 17 28v5q0 67 -88 97q-72 20 -196 20h-545q-122 0 -131 43q-63 149 -63 167l-2 9q0 69 90 193q120 142 209 203q143 103 249 146l75 27q0 -2 2 -2
q-28 -212 -31 -214q-101 -39 -222 -113q-192 -131 -244 -234h542q232 0 304 -37q43 -13 113 -80q45 -60 48 -155q41 -127 213 -127h25q41 0 41 -35v-179q0 -36 -41 -36h-62q-128 0 -233 154q-3 -6 -7 -11q-3 -4 -5 -8v2z" />
    <glyph glyph-name="uni06AA.fina" unicode="&#x6aa;" horiz-adv-x="1666" 
d="M1362 137q-52 -69 -146 -106q-90 -31 -185 -31h-882q-41 0 -41 36v179q0 35 41 35h698q439 -7 458 24q16 12 16 28v5q0 67 -87 97q-72 20 -196 20h-546q-121 0 -130 43q-64 149 -64 167l-1 9q0 69 90 193q120 142 209 203q143 103 249 146l75 27q0 -2 2 -2
q-28 -212 -31 -214q-101 -39 -222 -113q-192 -131 -244 -234h542q232 0 303 -37q44 -13 113 -80q46 -60 49 -155q41 -127 213 -127h25q41 0 41 -35v-179q0 -36 -41 -36h-62q-128 0 -233 154q-3 -6 -7 -11l-6 -8v2z" />
    <glyph glyph-name="uni06AB.init" unicode="&#x6ab;" horiz-adv-x="946" 
d="M-46 215q0 35 41 35h87q22 0 54.5 1.5t67.5 6.5t70 12.5t63 18.5t45 25t17 33q1 28 -28.5 71.5t-75.5 92.5t-101.5 99t-105.5 90l43 237q21 6 69.5 20t114.5 32t143.5 38.5t156 40t152.5 37t134 29.5l-55 -214q-41 -6 -95.5 -16.5t-114 -23t-119 -25.5t-109.5 -25
t-87 -21.5t-52 -14.5q50 -46 93.5 -88.5t75.5 -90.5t50 -108.5t18 -141.5q0 -101 -35.5 -170.5t-92.5 -113t-128.5 -62.5t-144.5 -19h-110q-41 0 -41 36v179zM842 1234q-53 -11 -115 -26t-128 -31.5t-130 -34.5t-118.5 -33.5t-96.5 -27.5t-63 -20l26 111q19 8 60 20.5
t96.5 27.5t119.5 31.5t130 32.5t129.5 31t115.5 27z" />
    <glyph glyph-name="uni06AB.medi" unicode="&#x6ab;" horiz-adv-x="1037" 
d="M-46 215q0 35 41 35h102q16 0 43.5 1.5t61.5 6t68.5 12t62.5 18t46.5 24t18.5 31.5q0 20 -16.5 48.5t-43 61.5t-60.5 68t-69 68t-69 62t-59 49l42 237l70 20t114.5 32t143 38.5t156.5 40t153 37t134 29.5l-55 -214q-40 -6 -94.5 -16.5t-113 -23t-118 -25.5t-109.5 -25
t-87 -21.5t-51 -14.5q67 -52 132 -109t124.5 -113t110.5 -106t90 -85q67 -62 140 -96.5t132 -34.5h49q41 0 41 -35v-179q0 -36 -41 -36h-75q-88 0 -190.5 64t-220.5 205l-54 59q-2 -62 -21 -110.5t-49 -85t-69 -61.5t-82.5 -41t-89 -23t-88.5 -7h-110q-41 0 -41 36v179z
M834 1234q-52 -11 -115 -26t-128 -31.5t-129 -34.5t-119 -33.5t-96.5 -27.5t-62.5 -20l25 111q19 8 60 20.5t96 27.5t120 31.5t131 32.5t129.5 31t114.5 27z" />
    <glyph glyph-name="uni06AB.fina" unicode="&#x6ab;" horiz-adv-x="1968" 
d="M1765 1234q-53 -11 -115.5 -26t-128 -31.5t-129.5 -34.5t-119 -33.5t-97 -27.5t-63 -20l27 111q19 8 60 20.5t96 27.5t119.5 31.5t130.5 32.5t129 31t115 27zM2014 36q0 -36 -41 -36h-74q-89 0 -186 63t-210 187l-71 78q-10 -74 -40 -128.5t-75.5 -93.5t-103.5 -64
t-123.5 -39.5t-137 -20t-143.5 -5.5h-155q-132 0 -234.5 19t-172.5 62t-106.5 113t-36.5 172q0 56 13 107.5t32.5 91.5t40 64t33.5 24q21 0 31 -11t10 -26q0 -10 -5.5 -20.5t-11 -26.5t-11 -38t-5.5 -56q0 -59 33.5 -101.5t91 -70t134 -40t162.5 -12.5h202q123 0 214 10
t150 27t88.5 38t29.5 44q0 26 -19 57.5t-48.5 67t-66.5 70t-73 65.5t-67.5 55t-51.5 38l43 237l70 20t115 32t143.5 38.5t155.5 40t152.5 37t134.5 29.5l-56 -214q-40 -6 -94 -16.5t-113 -23t-117.5 -25.5t-109 -25t-87.5 -21.5t-52 -14.5q69 -52 134 -109t124 -113
t110 -106t90 -85q67 -62 140 -96.5t132 -34.5h48q41 0 41 -35v-179z" />
    <glyph glyph-name="uni06AC.init" unicode="&#x6ac;" horiz-adv-x="885" 
d="M840 1285l-71 -236q-172 -60 -526 -189v-11q148 -144 201 -239q62 -110 62 -259q0 -177 -127 -271q-110 -80 -274 -80h-110q-41 0 -41 36v179q0 35 41 35h87q100 0 193 21q124 28 124 80q0 103 -347 391l48 256l248 103q241 100 492 184zM65 1362l119 121l121 -121
l-121 -119z" />
    <glyph glyph-name="uni06AC.medi" unicode="&#x6ac;" horiz-adv-x="1037" 
d="M1085 36q0 -36 -41 -36h-75q-152 0 -390 250l-75 78q-7 -170 -139 -258q-107 -70 -260 -70h-110q-41 0 -41 36v179q0 35 41 35h102q79 0 173 20q128 27 128 73q1 116 -340 399l47 256q121 56 344 141q276 105 434 146l-65 -235q-296 -83 -570 -190v-9l306 -315
q277 -286 441 -286h49q41 0 41 -35v-179zM65 1362l119 121l121 -121l-121 -119z" />
    <glyph glyph-name="uni06AC.fina" unicode="&#x6ac;" horiz-adv-x="1530" 
d="M1576 36q0 -36 -41 -36h-32q-88 0 -142 29t-102 115q-32 -52 -83 -82t-119 -47q-79 -19 -174.5 -28.5t-191.5 -9.5h-37q-275 0 -407 81q-143 88 -143 285q0 101 46 199q41 88 73 88q41 0 41 -37q0 -6 -17 -47q-16 -43 -16 -94q0 -112 124 -171q112 -53 297 -53h65
q53 0 105.5 2.5t100 7t89.5 11.5t74 14q37 8 60 19t36 26t18 34t5 43q0 192 -9.5 378t-27.5 371l104 105q56 56 66 56q20 0 24 -312l7 -599q1 -134 166 -134q41 0 41 -35v-179zM877 712q0 -43 -16 -75t-41.5 -53t-56 -31.5t-60.5 -10.5q-34 0 -70.5 13.5t-80.5 45.5
q-5 5 -4 8.5t9 4.5q50 2 98 8.5t84.5 16t59 21t22.5 25.5q0 18 -44 18h-85q-30 0 -48.5 5.5t-29.5 16t-15.5 24.5t-4.5 32q0 33 10.5 65t31.5 61q50 70 102 70q19 0 33 -10.5t23 -25t13.5 -30t4.5 -25.5q0 -13 -13 -7q-10 7 -22.5 8.5t-26.5 1.5q-22 0 -40.5 -7.5t-32.5 -18
t-21.5 -22t-7.5 -18.5q0 -13 15 -17.5t44 -4.5h76q48 0 71 -23.5t23 -65.5zM569 1259l119 121l119 -121l-119 -119z" />
    <glyph glyph-name="uni06AE.init" unicode="&#x6ae;" horiz-adv-x="885" 
d="M100 998l248 103q138 56 263 103t229 81l-71 -236q-119 -42 -253.5 -88.5t-272.5 -100.5v-11q70 -68 119.5 -125t81.5 -114t47 -119t15 -140q0 -96 -35.5 -162.5t-92.5 -108.5t-128.5 -61t-144.5 -19h-110q-41 0 -41 36v179q0 35 41 35h87q22 0 54.5 1.5t67.5 6.5t70 13
t63 19t45 26t17 35q0 23 -22.5 61.5t-66.5 88t-109 110.5t-149 131zM277 -237l-119 -121l-119 121l119 119zM414 -474l-119 -121l-121 121l121 120zM550 -237l-120 -121l-119 121l119 119z" />
    <glyph glyph-name="uni06AE.medi" unicode="&#x6ae;" horiz-adv-x="1037" 
d="M105 998q29 14 81.5 36t119.5 49t143 56t152.5 56.5t149 51t132.5 38.5l-65 -235q-67 -19 -140.5 -41.5t-148 -47t-146.5 -50.5t-135 -51v-9l306 -315q89 -92 159 -148t123.5 -87t92.5 -41t66 -10h49q41 0 41 -35v-179q0 -36 -41 -36h-75q-85 0 -181 63t-209 187l-75 78
q-2 -62 -21 -110.5t-49 -85t-69 -61.5t-82.5 -41t-89 -23t-88.5 -7h-110q-41 0 -41 36v179q0 35 41 35h102q16 0 43.5 1.5t61 6t68 12t62.5 18t46.5 24t19.5 31.5q0 27 -18 63.5t-58 85t-104.5 110.5t-159.5 140zM332 -237l-119 -121l-120 121l120 119zM469 -474l-120 -121
l-120 121l120 120zM604 -237l-119 -121l-119 121l119 119z" />
    <glyph glyph-name="uni06AE.fina" unicode="&#x6ae;" horiz-adv-x="1530" 
d="M1576 36q0 -36 -41 -36h-32q-88 0 -142 29t-102 115q-32 -52 -83 -82t-119 -47q-79 -19 -174.5 -28.5t-191.5 -9.5h-37q-275 0 -407 81q-143 88 -143 285q0 101 46 199q41 88 73 88q41 0 41 -37q0 -6 -17 -47q-16 -43 -16 -94q0 -112 124 -171q112 -53 297 -53h65
q53 0 105.5 2.5t100 7t89.5 11.5t74 14q37 8 60 19t36 26t18 34t5 43q0 192 -9.5 378t-27.5 371l104 105q56 56 66 56q20 0 24 -312l7 -599q1 -134 166 -134q41 0 41 -35v-179zM877 712q0 -43 -16 -75t-41.5 -53t-56 -31.5t-60.5 -10.5q-34 0 -70.5 13.5t-80.5 45.5
q-5 5 -4 8.5t9 4.5q50 2 98 8.5t84.5 16t59 21t22.5 25.5q0 18 -44 18h-85q-30 0 -48.5 5.5t-29.5 16t-15.5 24.5t-4.5 32q0 33 10.5 65t31.5 61q50 70 102 70q19 0 33 -10.5t23 -25t13.5 -30t4.5 -25.5q0 -13 -13 -7q-10 7 -22.5 8.5t-26.5 1.5q-22 0 -40.5 -7.5t-32.5 -18
t-21.5 -22t-7.5 -18.5q0 -13 15 -17.5t44 -4.5h76q48 0 71 -23.5t23 -65.5zM759 -237l-119 -121l-120 121l120 119zM896 -474l-120 -121l-120 121l120 120zM1031 -237l-119 -121l-119 121l119 119z" />
    <glyph glyph-name="uni06B0.init" unicode="&#x6b0;" horiz-adv-x="946" 
d="M842 1234q-53 -11 -115 -26t-128 -31.5t-130 -34.5t-118.5 -33.5t-96.5 -27.5t-63 -20l26 111q19 8 60 20.5t96.5 27.5t119.5 31.5t130 32.5t129.5 31t115.5 27zM594 872q-11 -3 -21 -5q-31 -31 -31 -76q0 -57 103 -57q28 0 55.5 11.5t27.5 24.5q0 23 -56 62
q-46 30 -78 40zM506 853q-53 -12 -98 -23q-50 -12 -87 -21.5t-52 -14.5q50 -46 93.5 -88.5t75.5 -90.5t50 -108.5t18 -141.5q0 -101 -35.5 -170.5t-92.5 -113t-128.5 -62.5t-144.5 -19h-110q-41 0 -41 36v179q0 35 41 35h87q22 0 54.5 1.5t67.5 6.5t70 12.5t63 18.5t45 25
t17 33q1 28 -28.5 71.5t-75.5 92.5t-101.5 99t-105.5 90l43 237q21 6 69.5 20t114.5 32t143.5 38.5t156 40t152.5 37t134 29.5l-55 -214q-41 -6 -96 -16q-3 -1 -7 -2q39 -51 39 -120q0 -79 -45 -122q-45 -40 -123 -40q-71 0 -107 32q-31 29 -31 80q0 56 30 121z" />
    <glyph glyph-name="uni06B0.medi" unicode="&#x6b0;" horiz-adv-x="1037" 
d="M834 1234q-52 -11 -115 -26t-128 -31.5t-129 -34.5t-119 -33.5t-96.5 -27.5t-62.5 -20l25 111q19 8 60 20.5t96 27.5t120 31.5t131 32.5t129.5 31t114.5 27zM506 854q-55 -13 -102 -24q-50 -12 -87 -21.5t-51 -14.5q67 -52 132 -109t124.5 -113t110.5 -106t90 -85
q67 -62 140 -96.5t132 -34.5h49q41 0 41 -35v-179q0 -36 -41 -36h-75q-88 0 -190.5 64t-220.5 205l-54 59q-2 -62 -21 -110.5t-49 -85t-69 -61.5t-82.5 -41t-89 -23t-88.5 -7h-110q-41 0 -41 36v179q0 35 41 35h102q16 0 43.5 1.5t61.5 6t68.5 12t62.5 18t46.5 24t18.5 31.5
q0 20 -16.5 48.5t-43 61.5t-60.5 68t-69 68t-69 62t-59 49l42 237l70 20t114.5 32t143 38.5t156.5 40t153 37t134 29.5l-55 -214q-40 -6 -94 -16q-2 -1 -3 -1q40 -51 40 -121q0 -79 -45 -122q-45 -40 -123 -40q-71 0 -107 32q-31 29 -31 80q0 56 30 122zM592 872l-18 -4
q-32 -31 -32 -77q0 -57 103 -57q28 0 55.5 11.5t27.5 24.5q0 23 -56 62q-47 31 -80 40z" />
    <glyph glyph-name="uni06B0.fina" unicode="&#x6b0;" horiz-adv-x="1968" 
d="M1765 1234q-53 -11 -115.5 -26t-128 -31.5t-129.5 -34.5t-119 -33.5t-97 -27.5t-63 -20l27 111q19 8 60 20.5t96 27.5t119.5 31.5t130.5 32.5t129 31t115 27zM1525 873q-6 -1 -13 -3q-33 -31 -33 -79q0 -57 103 -57q28 0 56 11.5t28 24.5q0 23 -57 62q-49 33 -84 41z
M1444 855q-59 -13 -109.5 -25t-87.5 -21.5t-52 -14.5q69 -52 134 -109t124 -113t110 -106t90 -85q67 -62 140 -96.5t132 -34.5h48q41 0 41 -35v-179q0 -36 -41 -36h-74q-89 0 -186 63t-210 187l-71 78q-10 -74 -40 -128.5t-75.5 -93.5t-103.5 -64t-123.5 -39.5t-137 -20
t-143.5 -5.5h-155q-132 0 -234.5 19t-172.5 62t-106.5 113t-36.5 172q0 56 13 107.5t32.5 91.5t40 64t33.5 24q21 0 31 -11t10 -26q0 -10 -5.5 -20.5t-11 -26.5t-11 -38t-5.5 -56q0 -59 33.5 -101.5t91 -70t134 -40t162.5 -12.5h202q123 0 214 10t150 27t88.5 38t29.5 44
q0 26 -19 57.5t-48.5 67t-66.5 70t-73 65.5t-67.5 55t-51.5 38l43 237l70 20t115 32t143.5 38.5t155.5 40t152.5 37t134.5 29.5l-56 -214q-38 -6 -90 -16q41 -51 41 -122q0 -79 -45 -122q-45 -40 -123 -40q-70 0 -107 32q-31 29 -31 80q0 57 31 123z" />
    <glyph glyph-name="uni06B2.init" unicode="&#x6b2;" horiz-adv-x="946" 
d="M-46 215q0 35 41 35h87q22 0 54.5 1.5t67.5 6.5t70 12.5t63 18.5t45 25t17 33q1 28 -28.5 71.5t-75.5 92.5t-101.5 99t-105.5 90l43 237q21 6 69.5 20t114.5 32t143.5 38.5t156 40t152.5 37t134 29.5l-55 -214q-41 -6 -95.5 -16.5t-114 -23t-119 -25.5t-109.5 -25
t-87 -21.5t-52 -14.5q50 -46 93.5 -88.5t75.5 -90.5t50 -108.5t18 -141.5q0 -101 -35.5 -170.5t-92.5 -113t-128.5 -62.5t-144.5 -19h-110q-41 0 -41 36v179zM842 1234q-53 -11 -115 -26t-128 -31.5t-130 -34.5t-118.5 -33.5t-96.5 -27.5t-63 -20l26 111q19 8 60 20.5
t96.5 27.5t119.5 31.5t130 32.5t129.5 31t115.5 27zM259 -237l-119 -121l-119 121l119 119zM532 -237l-120 -121l-119 121l119 119z" />
    <glyph glyph-name="uni06B2.medi" unicode="&#x6b2;" horiz-adv-x="1037" 
d="M-46 215q0 35 41 35h102q16 0 43.5 1.5t61.5 6t68.5 12t62.5 18t46.5 24t18.5 31.5q0 20 -16.5 48.5t-43 61.5t-60.5 68t-69 68t-69 62t-59 49l42 237l70 20t114.5 32t143 38.5t156.5 40t153 37t134 29.5l-55 -214q-40 -6 -94.5 -16.5t-113 -23t-118 -25.5t-109.5 -25
t-87 -21.5t-51 -14.5q67 -52 132 -109t124.5 -113t110.5 -106t90 -85q67 -62 140 -96.5t132 -34.5h49q41 0 41 -35v-179q0 -36 -41 -36h-75q-88 0 -190.5 64t-220.5 205l-54 59q-2 -62 -21 -110.5t-49 -85t-69 -61.5t-82.5 -41t-89 -23t-88.5 -7h-110q-41 0 -41 36v179z
M834 1234q-52 -11 -115 -26t-128 -31.5t-129 -34.5t-119 -33.5t-96.5 -27.5t-62.5 -20l25 111q19 8 60 20.5t96 27.5t120 31.5t131 32.5t129.5 31t114.5 27zM268 -237l-119 -121l-119 121l119 119zM541 -237l-120 -121l-119 121l119 119z" />
    <glyph glyph-name="uni06B2.fina" unicode="&#x6b2;" horiz-adv-x="1968" 
d="M1765 1234q-53 -11 -115.5 -26t-128 -31.5t-129.5 -34.5t-119 -33.5t-97 -27.5t-63 -20l27 111q19 8 60 20.5t96 27.5t119.5 31.5t130.5 32.5t129 31t115 27zM2014 36q0 -36 -41 -36h-74q-89 0 -186 63t-210 187l-71 78q-10 -74 -40 -128.5t-75.5 -93.5t-103.5 -64
t-123.5 -39.5t-137 -20t-143.5 -5.5h-155q-132 0 -234.5 19t-172.5 62t-106.5 113t-36.5 172q0 56 13 107.5t32.5 91.5t40 64t33.5 24q21 0 31 -11t10 -26q0 -10 -5.5 -20.5t-11 -26.5t-11 -38t-5.5 -56q0 -59 33.5 -101.5t91 -70t134 -40t162.5 -12.5h202q123 0 214 10
t150 27t88.5 38t29.5 44q0 26 -19 57.5t-48.5 67t-66.5 70t-73 65.5t-67.5 55t-51.5 38l43 237l70 20t115 32t143.5 38.5t155.5 40t152.5 37t134.5 29.5l-56 -214q-40 -6 -94 -16.5t-113 -23t-117.5 -25.5t-109 -25t-87.5 -21.5t-52 -14.5q69 -52 134 -109t124 -113
t110 -106t90 -85q67 -62 140 -96.5t132 -34.5h48q41 0 41 -35v-179zM759 -237l-119 -121l-120 121l120 119zM1031 -237l-119 -121l-119 121l119 119z" />
    <glyph glyph-name="uni06B4.init" unicode="&#x6b4;" horiz-adv-x="946" 
d="M-46 215q0 35 41 35h87q22 0 54.5 1.5t67.5 6.5t70 12.5t63 18.5t45 25t17 33q1 28 -28.5 71.5t-75.5 92.5t-101.5 99t-105.5 90l43 237q21 6 69.5 20t114.5 32t143.5 38.5t156 40t152.5 37t134 29.5l-55 -214q-41 -6 -95.5 -16.5t-114 -23t-119 -25.5t-109.5 -25
t-87 -21.5t-52 -14.5q50 -46 93.5 -88.5t75.5 -90.5t50 -108.5t18 -141.5q0 -101 -35.5 -170.5t-92.5 -113t-128.5 -62.5t-144.5 -19h-110q-41 0 -41 36v179zM842 1234q-53 -11 -115 -26t-128 -31.5t-130 -34.5t-118.5 -33.5t-96.5 -27.5t-63 -20l26 111q19 8 60 20.5
t96.5 27.5t119.5 31.5t130 32.5t129.5 31t115.5 27zM229 1699l119 121l120 -121l-120 -119zM92 1462l120 121l120 -121l-120 -119zM365 1462l119 121l120 -121l-120 -119z" />
    <glyph glyph-name="uni06B4.medi" unicode="&#x6b4;" horiz-adv-x="1037" 
d="M-46 215q0 35 41 35h102q16 0 43.5 1.5t61.5 6t68.5 12t62.5 18t46.5 24t18.5 31.5q0 20 -16.5 48.5t-43 61.5t-60.5 68t-69 68t-69 62t-59 49l42 237l70 20t114.5 32t143 38.5t156.5 40t153 37t134 29.5l-55 -214q-40 -6 -94.5 -16.5t-113 -23t-118 -25.5t-109.5 -25
t-87 -21.5t-51 -14.5q67 -52 132 -109t124.5 -113t110.5 -106t90 -85q67 -62 140 -96.5t132 -34.5h49q41 0 41 -35v-179q0 -36 -41 -36h-75q-88 0 -190.5 64t-220.5 205l-54 59q-2 -62 -21 -110.5t-49 -85t-69 -61.5t-82.5 -41t-89 -23t-88.5 -7h-110q-41 0 -41 36v179z
M834 1234q-52 -11 -115 -26t-128 -31.5t-129 -34.5t-119 -33.5t-96.5 -27.5t-62.5 -20l25 111q19 8 60 20.5t96 27.5t120 31.5t131 32.5t129.5 31t114.5 27zM229 1699l119 121l120 -121l-120 -119zM92 1462l120 121l120 -121l-120 -119zM365 1462l119 121l120 -121
l-120 -119z" />
    <glyph glyph-name="uni06B4.fina" unicode="&#x6b4;" horiz-adv-x="1968" 
d="M1765 1234q-53 -11 -115.5 -26t-128 -31.5t-129.5 -34.5t-119 -33.5t-97 -27.5t-63 -20l27 111q19 8 60 20.5t96 27.5t119.5 31.5t130.5 32.5t129 31t115 27zM2014 36q0 -36 -41 -36h-74q-89 0 -186 63t-210 187l-71 78q-10 -74 -40 -128.5t-75.5 -93.5t-103.5 -64
t-123.5 -39.5t-137 -20t-143.5 -5.5h-155q-132 0 -234.5 19t-172.5 62t-106.5 113t-36.5 172q0 56 13 107.5t32.5 91.5t40 64t33.5 24q21 0 31 -11t10 -26q0 -10 -5.5 -20.5t-11 -26.5t-11 -38t-5.5 -56q0 -59 33.5 -101.5t91 -70t134 -40t162.5 -12.5h202q123 0 214 10
t150 27t88.5 38t29.5 44q0 26 -19 57.5t-48.5 67t-66.5 70t-73 65.5t-67.5 55t-51.5 38l43 237l70 20t115 32t143.5 38.5t155.5 40t152.5 37t134.5 29.5l-56 -214q-40 -6 -94 -16.5t-113 -23t-117.5 -25.5t-109 -25t-87.5 -21.5t-52 -14.5q69 -52 134 -109t124 -113
t110 -106t90 -85q67 -62 140 -96.5t132 -34.5h48q41 0 41 -35v-179zM1121 1699l119 121l119 -121l-119 -119zM984 1462l119 121l121 -121l-121 -119zM1256 1462l120 121l120 -121l-120 -119z" />
    <glyph glyph-name="uni06B5.init" unicode="&#x6b5;" horiz-adv-x="510" 
d="M413 1017q16 -38 -3 -38q-16 0 -64 23l16 -455v-226q0 -321 -324 -321h-43q-41 0 -41 36v179q0 35 41 35h59q98 0 130 16q42 20 42 85q0 41 -7 101l-85 673l122 119q41 41 51 41q11 0 18 -22q39 -132 88 -246zM174 1428l-198 287h91l185 -161l183 161h94l-202 -287h-153z
" />
    <glyph glyph-name="uni06B5.medi" unicode="&#x6b5;" horiz-adv-x="584" 
d="M632 36q0 -36 -41 -36h-32q-89 0 -142 29t-102 105q-58 -88 -130 -115q-51 -19 -169 -19h-21q-41 0 -41 36v179q0 35 41 35h47q219 0 219 131q0 386 -37 753l104 105q56 56 65 56q20 0 25 -312l7 -599q2 -134 166 -134q41 0 41 -35v-179zM220 1428l-199 287h92l184 -161
l184 161h93l-202 -287h-152z" />
    <glyph glyph-name="uni06B5.fina" unicode="&#x6b5;" horiz-adv-x="1237" 
d="M1283 36q0 -36 -41 -36h-60q-55 0 -136 43l3 -66q14 -235 -165 -363q-153 -111 -387 -111q-416 0 -416 349q0 147 54 258q50 102 88 102q36 0 36 -33q0 -17 -25.5 -80t-25.5 -125q0 -220 313 -220q125 0 253 39q163 51 163 132q0 403 -67 1092l-11 108l105 105
q55 55 64 55q20 0 29 -311l19 -599q3 -125 166 -125q41 0 41 -35v-179zM865 1428l-198 287h91l185 -161l183 161h94l-202 -287h-153z" />
    <glyph glyph-name="uni06B6.init" unicode="&#x6b6;" horiz-adv-x="510" 
d="M413 1017q16 -38 -3 -38q-16 0 -64 23l16 -455v-226q0 -321 -324 -321h-43q-41 0 -41 36v179q0 35 41 35h59q98 0 130 16q42 20 42 85q0 41 -7 101l-85 673l122 119q41 41 51 41q11 0 18 -22q39 -132 88 -246zM133 1492l119 121l119 -121l-119 -119z" />
    <glyph glyph-name="uni06B6.medi" unicode="&#x6b6;" horiz-adv-x="584" 
d="M632 36q0 -36 -41 -36h-32q-89 0 -142 29t-102 105q-58 -88 -130 -115q-51 -19 -169 -19h-21q-41 0 -41 36v179q0 35 41 35h47q219 0 219 131q0 386 -37 753l104 105q56 56 65 56q20 0 25 -312l7 -599q2 -134 166 -134q41 0 41 -35v-179zM196 1483l120 121l119 -121
l-119 -119z" />
    <glyph glyph-name="uni06B6.fina" unicode="&#x6b6;" horiz-adv-x="1237" 
d="M1283 36q0 -36 -41 -36h-60q-55 0 -136 43l3 -66q14 -235 -165 -363q-153 -111 -387 -111q-416 0 -416 349q0 147 54 258q50 102 88 102q36 0 36 -33q0 -17 -25.5 -80t-25.5 -125q0 -220 313 -220q125 0 253 39q163 51 163 132q0 403 -67 1092l-11 108l105 105
q55 55 64 55q20 0 29 -311l19 -599q3 -125 166 -125q41 0 41 -35v-179zM833 1483l119 121l119 -121l-119 -119z" />
    <glyph glyph-name="uni06B7.init" unicode="&#x6b7;" horiz-adv-x="510" 
d="M413 1017q16 -38 -3 -38q-16 0 -64 23l16 -455v-226q0 -321 -324 -321h-43q-41 0 -41 36v179q0 35 41 35h59q98 0 130 16q42 20 42 85q0 41 -7 101l-85 673l122 119q41 41 51 41q11 0 18 -22q39 -132 88 -246zM133 1702l119 121l119 -121l-119 -120zM-4 1492l119 121
l121 -121l-121 -119zM268 1492l120 121l120 -121l-120 -119z" />
    <glyph glyph-name="uni06B7.medi" unicode="&#x6b7;" horiz-adv-x="584" 
d="M632 36q0 -36 -41 -36h-32q-89 0 -142 29t-102 105q-58 -88 -130 -115q-51 -19 -169 -19h-21q-41 0 -41 36v179q0 35 41 35h47q219 0 219 131q0 386 -37 753l104 105q56 56 65 56q20 0 25 -312l7 -599q2 -134 166 -134q41 0 41 -35v-179zM196 1702l120 121l119 -121
l-119 -120zM60 1492l119 121l120 -121l-120 -119zM332 1492l119 121l121 -121l-121 -119z" />
    <glyph glyph-name="uni06B7.fina" unicode="&#x6b7;" horiz-adv-x="1237" 
d="M1283 36q0 -36 -41 -36h-60q-55 0 -136 43l3 -66q14 -235 -165 -363q-153 -111 -387 -111q-416 0 -416 349q0 147 54 258q50 102 88 102q36 0 36 -33q0 -17 -25.5 -80t-25.5 -125q0 -220 313 -220q125 0 253 39q163 51 163 132q0 403 -67 1092l-11 108l105 105
q55 55 64 55q20 0 29 -311l19 -599q3 -125 166 -125q41 0 41 -35v-179zM833 1702l119 121l119 -121l-119 -120zM696 1492l119 121l121 -121l-121 -119zM968 1492l120 121l120 -121l-120 -119z" />
    <glyph glyph-name="uni06B8.init" unicode="&#x6b8;" horiz-adv-x="510" 
d="M413 1017q16 -38 -3 -38q-16 0 -64 23l16 -455v-226q0 -321 -324 -321h-43q-41 0 -41 36v179q0 35 41 35h59q98 0 130 16q42 20 42 85q0 41 -7 101l-85 673l122 119q41 41 51 41q11 0 18 -22q39 -132 88 -246zM241 -237l-119 -121l-120 121l120 119zM378 -474l-120 -121
l-120 121l120 120zM513 -237l-119 -121l-119 121l119 119z" />
    <glyph glyph-name="uni06B8.medi" unicode="&#x6b8;" horiz-adv-x="584" 
d="M632 36q0 -36 -41 -36h-32q-89 0 -142 29t-102 105q-58 -88 -130 -115q-51 -19 -169 -19h-21q-41 0 -41 36v179q0 35 41 35h47q219 0 219 131q0 386 -37 753l104 105q56 56 65 56q20 0 25 -312l7 -599q2 -134 166 -134q41 0 41 -35v-179zM259 -237l-119 -121l-119 121
l119 119zM396 -474l-119 -121l-121 121l121 120zM532 -237l-120 -121l-119 121l119 119z" />
    <glyph glyph-name="uni06B8.fina" unicode="&#x6b8;" horiz-adv-x="1237" 
d="M1283 36q0 -36 -41 -36h-60q-55 0 -136 43l3 -66q14 -235 -165 -363q-153 -111 -387 -111q-416 0 -416 349q0 147 54 258q50 102 88 102q36 0 36 -33q0 -17 -25.5 -80t-25.5 -125q0 -220 313 -220q125 0 253 39q163 51 163 132q0 403 -67 1092l-11 108l105 105
q55 55 64 55q20 0 29 -311l19 -599q3 -125 166 -125q41 0 41 -35v-179zM567 -738l-119 -121l-119 121l119 119zM704 -975l-119 -121l-120 121l120 120zM840 -738l-119 -121l-120 121l120 119z" />
    <glyph glyph-name="uni06B9.init" unicode="&#x6b9;" horiz-adv-x="517" 
d="M422 1006l-133 -133l-132 133l132 130zM431 386q0 -386 -349 -386h-87q-41 0 -41 36v179q0 35 41 35q310 0 310 65q0 50 -118 182l132 203q112 -128 112 -314zM408 -287l-132 -133l-133 133l133 130z" />
    <glyph glyph-name="uni06B9.medi" unicode="&#x6b9;" horiz-adv-x="726" 
d="M483 915l-132 -133l-132 133l132 130zM773 36q0 -36 -41 -36h-62q-127 0 -233 155q-33 -65 -113 -110t-156 -45h-173q-41 0 -41 36v179q0 35 41 35h112q152 0 218.5 51.5t66.5 166.5q0 47 47 47q17 0 29.5 -15t12.5 -32q0 -218 226 -218h25q41 0 41 -35v-179zM465 -287
l-132 -133l-133 133l133 130z" />
    <glyph glyph-name="uni06B9.fina" unicode="&#x6b9;" horiz-adv-x="1301" 
d="M1348 36q0 -36 -41 -36h-41q-57 0 -138 30q14 -72 14 -133q0 -442 -628 -442q-199 0 -311 98q-122 105 -122 313q0 123 84 291q52 103 88 103q35 0 35 -34l-40 -108q-40 -109 -40 -170q0 -123 102 -186q93 -57 250 -57q165 0 297 37q192 54 192 169q0 63 -47 136
q-37 59 -158 199l109 230q151 -226 335 -226h19q41 0 41 -35v-179zM734 612l-133 -133l-132 133l132 130zM767 -805l-132 -133l-133 133l133 130z" />
    <glyph glyph-name="uni06BC.init" unicode="&#x6bc;" horiz-adv-x="812" 
d="M473 974l-119 -119l-119 119l119 121zM430 -153q0 33 -80 86q-76 52 -127 61q-56 -45 -56 -117q0 -79 146 -79q38 0 77.5 16t39.5 33zM136 0h-141q-41 0 -41 36v179q0 35 41 35q492 0 492 65q0 39 -118 182l133 203q112 -128 112 -314q0 -267 -167 -349q58 -73 58 -173
q0 -111 -64 -170q-62 -58 -173 -58q-98 0 -148 46q-44 42 -44 111q0 94 60 207z" />
    <glyph glyph-name="uni06BC.medi" unicode="&#x6bc;" horiz-adv-x="819" 
d="M409 910l-120 -119l-119 119l119 122zM411 -162q0 33 -79 86q-76 52 -127 61q-56 -45 -56 -117q0 -79 146 -79q38 0 77 16t39 33zM123 0h-128q-41 0 -41 36v179q0 35 41 35h203q152 0 218.5 51.5t66.5 166.5q0 47 47 47q17 0 30 -15t13 -32q0 -218 226 -218h24
q41 0 41 -35v-179q0 -36 -41 -36h-62q-127 0 -233 155q-33 -65 -113 -109v-1q72 -78 72 -190q0 -111 -64 -170q-62 -58 -173 -58q-98 0 -148 46q-44 42 -44 111q0 94 60 207q3 4 5 9z" />
    <glyph glyph-name="uni06BC.fina" unicode="&#x6bc;" horiz-adv-x="1301" 
d="M734 612l-133 -133l-132 133l132 130zM629 -541l-34 -2q-47 -43 -47 -108q0 -80 146 -80q38 0 77.5 16t39.5 34q0 32 -80 86q-59 40 -102 54zM509 -545q-195 1 -306 98q-122 105 -122 313q0 123 84 291q52 103 88 103q35 0 35 -34l-40 -108q-40 -109 -40 -170
q0 -123 102 -186q93 -57 250 -57q165 0 297 37q192 54 192 169q0 63 -47 136q-37 59 -158 199l109 230q151 -226 335 -226h19q41 0 41 -35v-179q0 -36 -41 -36h-41q-57 0 -138 30q14 -72 14 -133q0 -308 -304 -401q48 -69 48 -160q0 -111 -63 -171q-62 -57 -174 -57
q-98 0 -148 46q-44 42 -44 111q0 86 52 190z" />
    <glyph glyph-name="uni06BD.init" unicode="&#x6bd;" horiz-adv-x="621" 
d="M428 1164l-120 -119l-119 119l119 121zM563 927l-119 -119l-119 119l119 122zM291 927l-119 -119l-120 119l120 122zM431 386q0 -386 -349 -386h-87q-41 0 -41 36v179q0 35 41 35q310 0 310 65q0 39 -118 182l132 203q112 -128 112 -314z" />
    <glyph glyph-name="uni06BD.medi" unicode="&#x6bd;" horiz-adv-x="726" 
d="M454 1109l-119 -121l-120 121l120 121zM590 871l-119 -119l-120 119l120 122zM318 871l-120 -119l-119 119l119 122zM773 36q0 -36 -41 -36h-62q-127 0 -233 155q-33 -65 -113 -110t-156 -45h-173q-41 0 -41 36v179q0 35 41 35h112q152 0 218.5 51.5t66.5 166.5
q0 47 47 47q17 0 29.5 -15t12.5 -32q0 -218 226 -218h25q41 0 41 -35v-179z" />
    <glyph glyph-name="uni06BD.fina" unicode="&#x6bd;" horiz-adv-x="1301" 
d="M1348 36q0 -36 -41 -36h-41q-57 0 -138 30q14 -72 14 -133q0 -442 -628 -442q-199 0 -311 98q-122 105 -122 313q0 123 84 291q52 103 88 103q35 0 35 -34l-40 -108q-40 -109 -40 -170q0 -123 102 -186q93 -57 250 -57q165 0 297 37q192 54 192 169q0 63 -47 136
q-37 59 -158 199l109 230q151 -226 335 -226h19q41 0 41 -35v-179zM477 812l120 121l119 -121l-119 -120zM341 602l119 121l120 -121l-120 -119zM613 602l119 121l121 -121l-121 -119z" />
    <glyph glyph-name="uni06BF.init" unicode="&#x6bf;" horiz-adv-x="1244" 
d="M1058 289q-26 2 -50.5 1.5t-53 -6t-64 -17.5t-85.5 -33.5t-117.5 -53.5t-158.5 -77q-110 -55 -221.5 -79t-207.5 -24h-105q-41 0 -41 36v179q0 35 41 35h95q64 0 114.5 1.5t95.5 7t88.5 14.5t94 24t110 35.5t137.5 48.5v7q-34 16 -83 36.5t-99.5 38.5t-95.5 30.5
t-73 12.5q-42 0 -71.5 -18.5t-50.5 -40.5t-37 -40.5t-33 -18.5q-20 0 -27.5 9.5t-7.5 27.5q0 10 8 36.5t24 60t39.5 70t55 66t70.5 49t84 19.5q39 0 89 -17t107 -42.5t120 -55.5t128 -55.5t130 -42t128 -16.5h50zM584 -237l-119 -121l-119 121l119 119zM721 -474l-120 -121
l-120 121l120 120zM857 -237l-120 -121l-119 121l119 119zM760 1052l-133 -132l-132 132l132 131z" />
    <glyph glyph-name="uni06BF.medi" unicode="&#x6bf;" horiz-adv-x="1244" 
d="M1081 394q-26 2 -49 3.5t-47 1.5q-29 0 -49.5 -4t-41.5 -14q-2 -49 28 -76t80 -39.5t115 -14t133 -1.5q41 0 41 -35v-179q0 -36 -41 -36h-108q-107 0 -174 28.5t-105 74t-51 101.5t-11 111q-74 -63 -140 -110.5t-127.5 -82.5t-121.5 -58.5t-124.5 -37.5t-136 -20
t-156.5 -6q-41 0 -41 36v179q0 35 41 35q111 0 209 9t189 31t177 61t173 99v7q-24 8 -56.5 16.5t-69 17.5t-74 17t-69.5 14t-56 10t-35 4q-43 0 -72 -18.5t-50 -40.5t-37.5 -40.5t-32.5 -18.5q-20 0 -28 9.5t-8 28.5q0 10 8.5 36t24.5 59.5t40 69.5t55 66t69.5 49t84.5 19
q54 0 106.5 -13.5t115.5 -40.5q97 -41 197.5 -61t207.5 -20l119 1zM635 -237l-120 -121l-119 121l119 119zM771 -474l-119 -121l-119 121l119 120zM907 -237l-119 -121l-120 121l120 119zM807 1052l-133 -132l-132 132l132 131z" />
    <glyph glyph-name="uni06BF.fina" unicode="&#x6bf;" horiz-adv-x="1265" 
d="M1312 36q0 -36 -41 -36h-68q-73 0 -140 18t-118 54t-81.5 92t-30.5 131q0 66 6 129q-129 -35 -226 -80.5t-161 -106t-96 -138.5t-32 -177q0 -39 9 -78.5t32 -76.5t61.5 -69t96 -56.5t137 -38.5t184.5 -14q82 0 144 6t103.5 13t63 12.5t24.5 5.5q13 0 13 -9q0 -3 -9 -18
t-31 -35t-57.5 -42.5t-88 -41t-124 -31t-164.5 -12.5q-81 0 -159 10.5t-147.5 33t-128.5 57.5t-102 83t-66.5 111t-23.5 141q0 104 34.5 190.5t104.5 158.5t175.5 130.5t247.5 104.5v9q-43 10 -88 17t-85.5 12t-73 8t-48.5 3q-37 0 -63.5 -9.5t-45.5 -22.5t-31.5 -29
t-23 -29t-20.5 -22.5t-23 -9.5q-4 0 -9 2t-10 6t-9 11.5t-4 18.5q0 14 8.5 43.5t24 64.5t38.5 72t52.5 67t65.5 49t78 19q32 0 76 -6t94 -15t103 -19t103.5 -19t95 -15t77.5 -6h57q29 0 60 1.5t66.5 4t79.5 7.5l-114 -228q-40 0 -75.5 -1.5t-70.5 -6.5v-37q0 -46 21.5 -75.5
t59.5 -45t88.5 -21t108.5 -5.5h55q41 0 41 -35v-179zM897 -2l-114 -116l-113 116l113 114zM769 -200l-114 -115l-114 115l114 113zM638 -2l-114 -116l-112 116l112 114zM812 1052l-133 -132l-132 132l132 131z" />
    <glyph glyph-name="uni06C2.fina" unicode="&#x6c2;" horiz-adv-x="811" 
d="M858 36q0 -36 -41 -36h-51q-67 0 -110 20t-72.5 57.5t-50 90t-42.5 118.5q-9 26 -19.5 40t-31.5 14q-30 0 -68 -17t-79 -47t-83 -72t-83 -93q-18 -18 -25 -18q-11 0 -11 25q0 13 11 58.5t33 111.5q15 49 41 91.5t72 82.5q31 27 65 51.5t67 42t62.5 28t51.5 10.5
q15 0 26 -7.5t20 -24t18 -41.5t19 -59q19 -59 35 -99.5t38 -66t56.5 -36t89.5 -10.5h21q41 0 41 -35v-179zM560 984l-32 -107q-43 -5 -110 -24q-140 -40 -188 -106q-10 18 -10 43q0 55 70 95q-58 36 -58 95t62 119t126 60q92 0 92 -73q0 -29 -19 -50q-27 30 -88 30
q-104 0 -104 -55q0 -24 33 -46t64 -22q83 0 162 41z" />
    <glyph glyph-name="uni06C3.fina" unicode="&#x6c3;" horiz-adv-x="811" 
d="M858 36q0 -36 -41 -36h-51q-67 0 -110 20t-72.5 57.5t-50 90t-42.5 118.5q-9 26 -19.5 40t-31.5 14q-30 0 -68 -17t-79 -47t-83 -72t-83 -93q-18 -18 -25 -18q-11 0 -11 25q0 13 11 58.5t33 111.5q15 49 41 91.5t72 82.5q31 27 65 51.5t67 42t62.5 28t51.5 10.5
q15 0 26 -7.5t20 -24t18 -41.5t19 -59q19 -59 35 -99.5t38 -66t56.5 -36t89.5 -10.5h21q41 0 41 -35v-179zM644 937l-119 -119l-120 119l120 122zM372 937l-120 -119l-119 119l119 122z" />
    <glyph glyph-name="uni06C4.fina" unicode="&#x6c4;" horiz-adv-x="831" 
d="M527 241q-42 149 -171 149q-39 0 -65 -28q-22 -24 -22 -50q0 -81 140 -81q61 0 118 10zM304 -305q52 34 101 75q-11 47 -56 69q-49 24 -94 -66q-12 -24 -13.5 -53.5t9.5 -34.5q15 -8 53 10zM446 -195q120 108 120 169q0 14 -10 37q-50 -11 -161 -11q-253 0 -253 160
q0 99 58 244q78 201 199 201q118 0 192 -109q65 -96 77 -246h170q41 0 41 -35v-179q0 -36 -41 -36h-161q-9 -177 -65 -298q-44 -97 -136 -189q-41 -41 -79 -41q-59 0 -251 22q-146 18 -146 36q0 16 67 43q80 31 152 70q-53 32 -68 81q-16 56 18 126q30 61 73 78q40 15 83 -6
q59 -30 110 -101q6 -8 11 -16z" />
    <glyph glyph-name="uni06CA.fina" unicode="&#x6ca;" horiz-adv-x="831" 
d="M879 36q0 -36 -41 -36h-161q-9 -177 -65 -298q-44 -97 -136 -189q-41 -41 -79 -41q-59 0 -251 22q-146 18 -146 36q0 16 67 43q199 77 356 211q143 123 143 190q0 14 -10 37q-50 -11 -161 -11q-253 0 -253 160q0 99 58 244q78 201 199 201q118 0 192 -109q65 -96 77 -246
h170q41 0 41 -35v-179zM527 241q-42 149 -171 149q-39 0 -65 -28q-22 -24 -22 -50q0 -81 140 -81q61 0 118 10zM137 891l119 121l120 -121l-120 -119zM409 891l119 121l121 -121l-121 -119z" />
    <glyph glyph-name="uni06CD.fina" unicode="&#x6cd;" horiz-adv-x="1658" 
d="M537 173q16 -9 16 -35q0 5 -31.5 -82.5t-31.5 -146.5q0 -158 183 -221q107 -37 259 -37q447 0 447 69q0 24 -57 34l-240 43q-123 22 -123 95q0 123 110 236q131 133 332 133q21 0 104 -5.5t155 -5.5q41 0 41 -35v-179q0 -36 -41 -36q-125 0 -255 18.5t-183 18.5
q-62 0 -102 -24q-35 -22 -35 -47q0 -33 43 -39l274 -43q43 -6 71 -37q34 -36 32 -89q-6 -198 -227 -272q-151 -49 -460 -49q-468 0 -471 346q0 42 10 92q-51 -32 -92 -32q-83 0 -133 82q-36 59 -36 103q0 10 8 10q-1 -1 51 -15q56 -18 94 -18q71 0 147 61q20 15 40 43
q34 71 75 71q17 0 26 -7z" />
    <glyph glyph-name="uni06CE.init" unicode="&#x6ce;" horiz-adv-x="593" 
d="M431 386q0 -386 -349 -386h-87q-41 0 -41 36v179q0 35 41 35q310 0 310 65q0 39 -118 182l132 203q112 -128 112 -314zM536 -291l-119 -120l-120 120l120 122zM264 -291l-120 -120l-119 120l119 122zM205 865l-199 287h91l185 -160l183 160h94l-202 -287h-152z" />
    <glyph glyph-name="uni06CE.medi" unicode="&#x6ce;" horiz-adv-x="726" 
d="M773 36q0 -36 -41 -36h-62q-127 0 -233 155q-33 -65 -113 -110t-156 -45h-173q-41 0 -41 36v179q0 35 41 35h112q152 0 218.5 51.5t66.5 166.5q0 47 47 47q17 0 29.5 -15t12.5 -32q0 -218 226 -218h25q41 0 41 -35v-179zM583 -291l-120 -120l-119 120l119 122zM310 -291
l-119 -120l-119 120l119 122zM319 724l-198 287h91l185 -160l183 160h94l-203 -287h-152z" />
    <glyph glyph-name="uni06CE.fina" unicode="&#x6ce;" horiz-adv-x="1391" 
d="M1437 36q0 -36 -41 -36q-125 0 -255.5 18.5t-183.5 18.5q-62 0 -102 -24q-34 -22 -34 -47q0 -33 43 -39l274 -43q43 -6 71 -37q34 -36 32 -89q-7 -198 -228 -272q-150 -49 -459 -49q-468 0 -472 346q-1 125 94 324q33 71 74 71q39 0 39 -40q0 5 -31.5 -82.5t-31.5 -146.5
q0 -158 182 -221q108 -37 260 -37q446 0 446 69q0 24 -56 34l-241 43q-123 22 -123 95q0 123 110 236q132 133 332 133q22 0 105 -5.5t155 -5.5q41 0 41 -35v-179zM383 371l-199 287h91l185 -161l183 161h94l-202 -287h-152z" />
    <glyph glyph-name="uni06CF.fina" unicode="&#x6cf;" horiz-adv-x="831" 
d="M879 36q0 -36 -41 -36h-161q-9 -177 -65 -298q-44 -97 -136 -189q-41 -41 -79 -41q-59 0 -251 22q-146 18 -146 36q0 16 67 43q199 77 356 211q143 123 143 190q0 14 -10 37q-50 -11 -161 -11q-253 0 -253 160q0 99 58 244q78 201 199 201q118 0 192 -109q65 -96 77 -246
h170q41 0 41 -35v-179zM527 241q-42 149 -171 149q-39 0 -65 -28q-22 -24 -22 -50q0 -81 140 -81q61 0 118 10zM273 882l120 121l119 -121l-119 -119z" />
    <glyph glyph-name="uni06D1.init" unicode="&#x6d1;" horiz-adv-x="593" 
d="M319 700q61 -70 86.5 -146t25.5 -168q0 -74 -15 -144t-54 -123.5t-107 -86t-173 -32.5h-87q-41 0 -41 36v179q0 35 41 35q27 0 61 0.5t68.5 2t67 5t57.5 11t40.5 19t15.5 27.5q0 14 -4.5 27t-17.5 32.5t-36 48.5t-60 74zM264 -237l-120 -121l-119 121l119 119zM400 -474
l-119 -121l-119 121l119 120zM536 -237l-119 -121l-120 121l120 119z" />
    <glyph glyph-name="uni06D1.medi" unicode="&#x6d1;" horiz-adv-x="726" 
d="M-46 215q0 35 41 35h112q77 0 131 12.5t88 39.5t50 68.5t16 97.5q0 16 12.5 31.5t34.5 15.5q18 0 30 -15.5t12 -31.5q0 -114 56.5 -166t169.5 -52h25q19 0 30 -8.5t11 -26.5v-179q0 -19 -11 -27.5t-30 -8.5h-62q-33 0 -64.5 12t-62 33t-57 49t-49.5 61q-17 -33 -47.5 -61
t-67 -49t-77 -33t-77.5 -12h-173q-41 0 -41 36v179zM303 -237l-119 -121l-120 121l120 119zM439 -474l-120 -121l-119 121l119 120zM575 -237l-119 -121l-119 121l119 119z" />
    <glyph glyph-name="uni06D1.fina" unicode="&#x6d1;" horiz-adv-x="1391" 
d="M1437 36q0 -36 -41 -36q-125 0 -255.5 18.5t-183.5 18.5q-62 0 -102 -24q-34 -22 -34 -47q0 -33 43 -39l274 -43q43 -6 71 -37q34 -36 32 -89q-7 -198 -228 -272q-150 -49 -459 -49q-468 0 -472 346q-1 125 94 324q33 71 74 71q39 0 39 -40q0 5 -31.5 -82.5t-31.5 -146.5
q0 -158 182 -221q108 -37 260 -37q446 0 446 69q0 24 -56 34l-241 43q-123 22 -123 95q0 123 110 236q132 133 332 133q22 0 105 -5.5t155 -5.5q41 0 41 -35v-179zM740 -965l-120 -119l-119 119l119 122zM605 -762l-120 -119l-119 119l119 122zM877 -762l-119 -119l-119 119
l119 122z" />
    <glyph glyph-name="uni06D5.fina" unicode="&#x6d5;" horiz-adv-x="871" 
d="M919 36q0 -36 -42 -36h-28q-196 0 -267 246h-3l-96 -130q-25 -8 -68 -8q-92 0 -202 37q-118 38 -118 77q0 60 24 135q26 87 64 119q94 80 296 181l-25 98l138 151l104 -518q28 -138 150 -138h31q42 0 42 -35v-179zM561 321l-53 220q-85 -35 -168 -82q-96 -55 -96 -78
q0 -20 80 -43q84 -25 178 -25q45 0 59 8z" />
    <glyph glyph-name="uni06EE.fina" unicode="&#x6ee;" horiz-adv-x="1047" 
d="M1095 36q0 -36 -41 -36q-124 0 -200 61q-53 43 -99 137q-124 -198 -375 -198q-280 0 -280 226q0 79 26 143q24 60 51 60q35 0 35 -65t46 -89.5t168 -24.5q103 0 184 29q78 28 78 59q0 37 -19 82l-131 313l130 173l185 -512q30 -80 68 -110q43 -33 133 -34q41 0 41 -35
v-179zM695 1285l202 -287h-94l-183 160l-185 -160h-91l199 287h152z" />
    <glyph glyph-name="uni06EF.fina" unicode="&#x6ef;" horiz-adv-x="828" 
d="M876 36q0 -36 -42 -36q-119 0 -168 26q7 -27 7 -74q0 -51 -23 -136q-30 -100 -73 -170q-110 -174 -166 -174q-90 0 -242 18q-169 19 -169 38t89 50q170 59 325 198q147 132 147 208t-177 258l103 234q91 -131 149 -174q76 -55 198 -52q42 1 42 -35v-179zM517 927
l202 -287h-94l-183 160l-185 -160h-91l198 287h153z" />
    <glyph glyph-name="uni06FA.init" unicode="&#x6fa;" horiz-adv-x="1335" 
d="M917 1109l-120 -121l-120 121l120 121zM1053 871l-120 -119l-119 119l119 122zM780 871l-119 -119l-119 119l119 122zM1263 364q0 -145 -62 -248q-70 -116 -186 -116q-86 0 -141 40q-39 28 -83 98q-78 -138 -192 -138q-86 0 -139 40q-41 29 -81 98q-61 -72 -127 -102
q-78 -36 -200 -36h-57q-41 0 -41 36v179q0 35 41 35h97q119 0 183 54q55 49 55 125q0 68 46 68q44 0 44 -68q0 -55 36 -110q46 -69 119 -69q75 0 121 69q36 55 36 110q0 68 45 68q44 0 44 -68q0 -55 38 -110q48 -69 128 -69q165 0 165 90q0 35 -97 153l110 184
q98 -129 98 -313zM915 -237l-119 -121l-120 121l120 119z" />
    <glyph glyph-name="uni06FA.medi" unicode="&#x6fa;" horiz-adv-x="1451" 
d="M912 1109l-119 -121l-119 121l119 121zM1049 871l-119 -119l-120 119l120 122zM777 871l-120 -119l-119 119l119 122zM1499 36q0 -36 -42 -36h-23q-135 0 -226 138q-80 -138 -193 -138q-86 0 -141 40q-39 28 -83 98q-78 -138 -192 -138q-86 0 -139 40q-41 29 -81 98
q-61 -72 -127 -102q-78 -36 -200 -36h-57q-41 0 -41 36v179q0 35 41 35h97q119 0 183 54q55 49 55 125q0 68 46 68q44 0 44 -68q0 -55 36 -110q46 -69 119 -69q81 0 131 69q37 55 37 110q0 68 45 68q44 0 44 -68q0 -55 38 -110q46 -69 123 -69q85 0 135 69q39 54 39 110
q0 68 44 68q45 0 45 -68q0 -55 45 -110q59 -69 156 -69q42 0 42 -35v-179zM915 -237l-119 -121l-120 121l120 119z" />
    <glyph glyph-name="uni06FA.fina" unicode="&#x6fa;" horiz-adv-x="1933" 
d="M1979 36q0 -36 -41 -36h-25q-134 0 -226 138q-79 -138 -188 -138q-108 0 -186 130q-13 -49 -58.5 -89.5t-85.5 -40.5q-55 0 -73 13v-99q0 -225 -158 -344q-151 -115 -424 -115q-199 0 -311 98q-122 105 -122 313q0 123 84 291q52 103 88 103q35 0 35 -34l-40 -108
q-40 -109 -40 -170q0 -123 102 -186q93 -57 250 -57q165 0 290 46q158 59 157 167q-1 100 -217 324l103 224q90 -123 140.5 -169.5t97.5 -46.5q69 0 112 69q36 56 36 110q0 68 45 68q44 0 44 -68q0 -54 36 -110q44 -69 112 -69q57 0 97 69q33 57 33 110q0 68 46 68
q44 0 44 -68q0 -55 46 -110q58 -69 156 -69q41 0 41 -35v-179zM1581 871l-119 -119l-119 119l119 122zM1309 871l-119 -119l-120 119l120 122zM1445 1109l-120 -121l-119 121l119 121zM1479 -237l-120 -121l-119 121l119 119z" />
    <glyph glyph-name="uni06FB.init" unicode="&#x6fb;" horiz-adv-x="1442" 
d="M1056 1006l-132 -133l-133 133l133 130zM1370 442q0 -130 -101 -253q-153 -189 -472 -189q-183 0 -244 12q-138 27 -198 126q-74 -85 -147 -112q-69 -26 -213 -26q-41 0 -41 36v179q0 35 41 35h46q144 0 214 69q48 49 48 110q0 68 45 68q44 0 44 -68q0 -59 34 -104
q48 -64 148 -64q328 426 568 426q103 0 164 -63q64 -66 64 -182zM1220 351q0 55 -63 98q-60 40 -123 40q-157 0 -348 -235q41 -4 194 -4q340 0 340 101zM1043 -321l-133 -133l-132 133l132 131z" />
    <glyph glyph-name="uni06FB.medi" unicode="&#x6fb;" horiz-adv-x="1420" 
d="M1467 36q0 -36 -41 -36q-171 0 -233 112q-122 -75 -222 -96q-83 -16 -285 -16q-247 0 -331 138q-74 -85 -147 -112q-69 -26 -213 -26q-41 0 -41 36v179q0 35 41 35h46q143 0 213 69q49 49 49 110q0 68 45 68q44 0 44 -68q0 -57 39 -108q52 -67 143 -60q334 426 568 426
q103 0 164 -63q64 -66 64 -182q0 -61 -41 -155l-15 -31q61 -5 112 -6q41 0 41 -35v-179zM1220 351q0 55 -63 98q-60 40 -123 40q-157 0 -348 -235q37 -4 190 -4q344 0 344 101zM1056 1006l-132 -133l-133 133l133 130zM1061 -321l-133 -133l-132 133l132 131z" />
    <glyph glyph-name="uni06FB.fina" unicode="&#x6fb;" horiz-adv-x="1904" 
d="M1950 36q0 -36 -41 -36q-170 0 -233 112q-166 -112 -395 -112q-101 0 -198 36q17 -80 17 -122q1 -225 -159 -344q-153 -115 -427 -115q-199 0 -311 98q-122 105 -122 313q0 123 84 291q52 103 88 103q35 0 35 -34l-40 -108q-40 -109 -40 -170q0 -123 102 -186
q93 -57 250 -57q165 0 290 46q158 59 157 167q-1 100 -217 324l103 224q95 -133 177 -190q317 411 556 411q102 0 163 -63q65 -66 65 -182q0 -61 -42 -155q-6 -16 -15 -31q54 -6 111 -6q42 0 42 -35v-179zM1704 351q0 55 -63 98q-60 40 -123 40q-157 0 -349 -235
q41 -4 194 -4q341 0 341 101zM1546 1006l-133 -133l-132 133l132 130zM1551 -321l-133 -133l-132 133l132 131z" />
    <glyph glyph-name="uni06FC.init" unicode="&#x6fc;" horiz-adv-x="1022" 
d="M950 324l-116 -235l-87 -7q-122 -8 -491 -56q-164 -26 -261 -26q-41 0 -41 36v179q0 35 41 35h50l213 6l-19 27q-57 50 -57 132q0 137 130 269.5t274 132.5q97 0 193 -92q87 -83 87 -137q0 -17 -24 -17q4 0 -59 16q-66 16 -156 16q-297 0 -297 -105q0 -55 65 -116
q86 -81 234 -81q207 0 321 23zM698 1131l-132 -133l-133 133l133 130zM696 -321l-133 -133l-132 133l132 131z" />
    <glyph glyph-name="uni06FC.medi" unicode="&#x6fc;" horiz-adv-x="828" 
d="M577 1043l-133 -133l-132 133l132 130zM876 36q0 -36 -42 -36h-65q-171 0 -315 173q-82 -98 -183 -138q-89 -35 -228 -35h-48q-41 0 -41 36v179q0 35 41 35h118q109 0 242 49v16q-40 43 -80 85q-71 73 -91 77q-29 8 -29 27q0 73 61 127q77 69 221 69q125 0 202 -42
q91 -49 91 -141q0 -49 -67 -118q-59 -60 -110 -84v-11q103 -54 257 -54h24q42 0 42 -35v-179zM569 -321l-133 -133l-132 133l132 131z" />
    <glyph glyph-name="uni06FC.fina" unicode="&#x6fc;" horiz-adv-x="1166" 
d="M1213 36q0 -36 -42 -36h-118q-101 0 -233 86q-125 81 -210 194q-307 -134 -307 -381q0 -170 147 -248q113 -62 292 -62q138 0 248 19q94 16 91 18q10 0 10 -9q0 -17 -40 -54q-55 -51 -145 -83q-122 -43 -289 -43q-278 0 -421 124q-124 106 -124 277q0 314 465 513
q-40 40 -81 79q-72 67 -91 72q-28 6 -28 26q0 73 61 128q77 70 221 70q124 0 202 -43q91 -49 91 -142q0 -47 -67 -110q-51 -47 -111 -80v-9q85 -58 199 -78q83 -14 238 -14q42 0 42 -35v-179zM771 -108l-133 -133l-132 133l132 131zM759 1070l-133 -133l-132 133l132 130z
" />
    <glyph glyph-name="uni06FF.init" unicode="&#x6ff;" horiz-adv-x="1026" 
d="M950 374q0 -131 -70 -235q-69 -100 -144 -100q-68 0 -282 103q-217 -142 -373 -142h-86q-41 0 -41 36v179q0 35 41 35h50q98 0 187 11q-68 47 -68 131q0 187 200 265l-100 46l94 203q261 -122 415 -252q177 -149 177 -280zM839 278q0 96 -174 201q0 -115 -79 -197
q128 -65 200 -65q53 0 53 61zM553 448q0 91 -60 127q-83 0 -131 -34.5t-48 -86.5q0 -81 146 -114q93 43 93 108zM434 1292l202 -287h-93l-184 160l-185 -160h-91l199 287h152z" />
    <glyph glyph-name="uni06FF.medi" unicode="&#x6ff;" horiz-adv-x="973" 
d="M1021 36q0 -36 -41 -36h-207q18 -38 25.5 -75.5t7.5 -69.5q0 -60 -19 -116t-51.5 -99.5t-75.5 -69.5t-90 -26q-54 0 -112.5 36t-108.5 98.5t-86 146.5t-44 180q-52 -4 -107.5 -4.5t-116.5 -0.5q-41 0 -41 36v179q0 35 41 35h205q28 308 228 567q117 -167 161 -281
q38 -99 38 -206q0 -63 -16 -115q65 18 146.5 26.5t185.5 8.5h37q41 0 41 -35v-179zM468 18q-28 0 -56 -3.5t-56 -9.5q11 -50 40 -95.5t67.5 -80t80.5 -55t81 -20.5q20 0 31.5 15t11.5 49q0 23 -13 58t-38.5 66.5t-63 53.5t-85.5 22zM515 319q0 35 -114 215
q-86 -133 -89 -276q133 1 175 18q28 11 28 43zM507 1292l202 -287h-94l-183 160l-185 -160h-91l199 287h152z" />
    <glyph glyph-name="uni06FF.fina" unicode="&#x6ff;" horiz-adv-x="1116" 
d="M1162 36q0 -36 -41 -36h-216q18 -38 25.5 -75.5t7.5 -69.5q0 -60 -19 -116t-51.5 -99.5t-75.5 -69.5t-90 -26q-52 0 -107 32.5t-103.5 90.5t-85 137.5t-52.5 173.5q-96 -33 -155.5 -77.5t-97.5 -107.5q-6 -9 -11 -12t-11 -3q-11 0 -11 32q0 16 3.5 39t9.5 49.5t14.5 56
t18.5 57.5q29 76 79.5 123.5t135.5 74.5q8 92 26.5 174.5t47.5 157t68.5 143t88.5 132.5q117 -167 161 -281q38 -99 38 -206q0 -63 -16 -115q66 18 147 26.5t186 8.5h45q41 0 41 -35v-179zM600 18q-30 0 -59 -2.5t-54 -12.5q11 -49 40.5 -94t68 -79.5t80.5 -55t81 -20.5
q20 0 31.5 15t11.5 49q0 23 -13 58t-38.5 66.5t-63 53.5t-85.5 22zM647 319q0 35 -113 215q-47 -73 -69 -146.5t-23 -150.5q45 10 90.5 17t86.5 22q28 11 28 43zM643 1292l202 -287h-94l-183 160l-185 -160h-91l199 287h152z" />
    <glyph glyph-name="uniFB50" unicode="&#x671;" horiz-adv-x="414" arabic-form="isolated" 
d="M312 265q0 -68 -43.5 -194.5t-68.5 -126.5q-11 0 -19 56q-7 63 -30 354l-60 767l75 63q119 101 126 101q12 0 14 -203zM383 1550q0 -81 -54 -131q-47 -44 -120 -44q-13 0 -28 1t-30 3.5t-28.5 4t-21.5 1.5q-28 0 -47 -16t-29 -51q-25 25 -25 66q0 40 30 72q15 14 28.5 20
t27.5 6h11q6 0 11 -2q50 81 95 123t88 42q18 0 35 -7t29.5 -20t20 -30.5t7.5 -37.5zM333 1516q0 20 -16 32.5t-49 12.5q-30 0 -58.5 -23.5t-58.5 -64.5q13 -2 36 -3t50 -1q9 0 25 3.5t31.5 9.5t27.5 14.5t12 19.5z" />
    <glyph glyph-name="uniFB51" unicode="&#x671;" horiz-adv-x="471" arabic-form="final" 
d="M518 36q0 -36 -35 -36h-60q-132 0 -208 87q-59 69 -59 150q0 133 -18 415q-22 323 -47 469l48 47q122 117 132 117q13 0 20 -203l20 -699q2 -76 38 -106q32 -27 106 -27q63 0 63 -35v-179zM393 1541q0 -82 -54 -131q-47 -44 -120 -44q-13 0 -28 1t-30 3.5t-28.5 4
t-21.5 1.5q-28 0 -47 -16t-29 -51q-25 25 -25 66q0 40 30 72q15 14 28.5 20t27.5 6h11q6 0 11 -2q50 80 95 122.5t88 42.5q18 0 35 -7t29.5 -20t20 -30.5t7.5 -37.5zM343 1507q0 20 -16 32t-49 12q-30 0 -58.5 -23t-58.5 -64q13 -2 36 -3t50 -1q9 0 25 3.5t31.5 9.5
t27.5 14.5t12 19.5z" />
    <glyph glyph-name="uniFB52" unicode="&#x67b;" horiz-adv-x="1569" arabic-form="isolated" 
d="M1384 700q59 -75 85.5 -150t26.5 -164q0 -55 -14.5 -110.5t-43 -101.5t-70 -81t-96.5 -48q-57 -15 -133.5 -27.5t-159.5 -21.5t-167 -14t-158 -5q-132 0 -234.5 19t-172.5 62t-106.5 113t-36.5 172q0 56 13 107.5t32.5 91.5t40 64t33.5 24q21 0 31 -11t10 -26
q0 -10 -5.5 -20.5t-11 -26.5t-11 -38t-5.5 -56q0 -59 33.5 -101.5t91 -70t134 -40t162.5 -12.5q39 0 90.5 1t108.5 4.5t118.5 7.5t118.5 10.5t108.5 14t90 17t60.5 21t22 24.5q0 6 -3 14t-15.5 25t-37 48t-67.5 85zM951 -555l-132 -133l-133 133l133 130zM944 -287
l-132 -133l-133 133l133 130z" />
    <glyph glyph-name="uniFB53" unicode="&#x67b;" horiz-adv-x="1655" arabic-form="final" 
d="M1701 36q0 -36 -41 -36q-65 0 -110 8.5t-78 29.5t-58.5 55.5t-50.5 87.5q-74 -59 -157 -98.5t-173.5 -63t-185.5 -33t-193 -9.5q-132 0 -234.5 19t-172.5 62t-106.5 113t-36.5 172q0 56 13 107.5t32.5 91.5t40 64t33.5 24q21 0 31 -11t10 -26q0 -10 -5.5 -20.5t-11 -26.5
t-11 -38t-5.5 -56q0 -59 33.5 -101.5t91 -70t134 -40t162.5 -12.5q137 0 241.5 12t182.5 32t132.5 45.5t92 51t61 51t39 45.5t26 32t21.5 12q19 0 31.5 -11.5t12.5 -32.5q0 -14 -3 -32t-8.5 -36.5t-12.5 -36.5t-13 -32q23 -45 77.5 -61.5t127.5 -16.5q41 0 41 -35v-179z
M951 -555l-132 -133l-133 133l133 130zM944 -287l-132 -133l-133 133l133 130z" />
    <glyph glyph-name="uniFB54" unicode="&#x67b;" horiz-adv-x="514" arabic-form="initial" 
d="M431 386q0 -386 -349 -386h-87q-41 0 -41 36v179q0 35 41 35q310 0 310 65q0 39 -118 182l132 203q112 -128 112 -314zM433 -555l-132 -133l-133 133l133 130zM426 -287l-132 -133l-133 133l133 130z" />
    <glyph glyph-name="uniFB55" unicode="&#x67b;" horiz-adv-x="726" arabic-form="medial" 
d="M773 36q0 -36 -41 -36h-62q-127 0 -233 155q-33 -65 -113 -110t-156 -45h-173q-41 0 -41 36v179q0 35 41 35h112q152 0 218.5 51.5t66.5 166.5q0 47 47 47q17 0 29.5 -15t12.5 -32q0 -218 226 -218h25q41 0 41 -35v-179zM469 -552l-132 -133l-133 133l133 130zM465 -287
l-132 -133l-133 133l133 130z" />
    <glyph glyph-name="uniFB56" unicode="&#x67e;" horiz-adv-x="1569" arabic-form="isolated" 
d="M1384 700q59 -75 85.5 -150t26.5 -164q0 -55 -14.5 -110.5t-43 -101.5t-70 -81t-96.5 -48q-57 -15 -133.5 -27.5t-159.5 -21.5t-167 -14t-158 -5q-132 0 -234.5 19t-172.5 62t-106.5 113t-36.5 172q0 56 13 107.5t32.5 91.5t40 64t33.5 24q21 0 31 -11t10 -26
q0 -10 -5.5 -20.5t-11 -26.5t-11 -38t-5.5 -56q0 -59 33.5 -101.5t91 -70t134 -40t162.5 -12.5q39 0 90.5 1t108.5 4.5t118.5 7.5t118.5 10.5t108.5 14t90 17t60.5 21t22 24.5q0 6 -3 14t-15.5 25t-37 48t-67.5 85zM768 -237l-119 -121l-120 121l120 119zM905 -474
l-120 -121l-120 121l120 120zM1041 -237l-120 -121l-119 121l119 119z" />
    <glyph glyph-name="uniFB57" unicode="&#x67e;" horiz-adv-x="1655" arabic-form="final" 
d="M802 -237l-119 -121l-120 121l120 119zM938 -474l-120 -121l-119 121l119 120zM1074 -237l-119 -121l-119 121l119 119zM1701 36q0 -36 -41 -36q-65 0 -110 8.5t-78 29.5t-58.5 55.5t-50.5 87.5q-74 -59 -157 -98.5t-173.5 -63t-185.5 -33t-193 -9.5q-132 0 -234.5 19
t-172.5 62t-106.5 113t-36.5 172q0 56 13 107.5t32.5 91.5t40 64t33.5 24q21 0 31 -11t10 -26q0 -10 -5.5 -20.5t-11 -26.5t-11 -38t-5.5 -56q0 -59 33.5 -101.5t91 -70t134 -40t162.5 -12.5q137 0 241.5 12t182.5 32t132.5 45.5t92 51t61 51t39 45.5t26 32t21.5 12
q19 0 31.5 -11.5t12.5 -32.5q0 -14 -3 -32t-8.5 -36.5t-12.5 -36.5t-13 -32q23 -45 77.5 -61.5t127.5 -16.5q41 0 41 -35v-179z" />
    <glyph glyph-name="uniFB58" unicode="&#x67e;" horiz-adv-x="593" arabic-form="initial" 
d="M319 700q61 -70 86.5 -146t25.5 -168q0 -74 -15 -144t-54 -123.5t-107 -86t-173 -32.5h-87q-41 0 -41 36v179q0 35 41 35q27 0 61 0.5t68.5 2t67 5t57.5 11t40.5 19t15.5 27.5q0 14 -4.5 27t-17.5 32.5t-36 48.5t-60 74zM264 -237l-120 -121l-119 121l119 119zM400 -474
l-119 -121l-119 121l119 120zM536 -237l-119 -121l-120 121l120 119z" />
    <glyph glyph-name="uniFB59" unicode="&#x67e;" horiz-adv-x="726" arabic-form="medial" 
d="M-46 215q0 35 41 35h112q77 0 131 12.5t88 39.5t50 68.5t16 97.5q0 16 12.5 31.5t34.5 15.5q18 0 30 -15.5t12 -31.5q0 -114 56.5 -166t169.5 -52h25q19 0 30 -8.5t11 -26.5v-179q0 -19 -11 -27.5t-30 -8.5h-62q-33 0 -64.5 12t-62 33t-57 49t-49.5 61q-17 -33 -47.5 -61
t-67 -49t-77 -33t-77.5 -12h-173q-41 0 -41 36v179zM303 -237l-119 -121l-120 121l120 119zM439 -474l-120 -121l-119 121l119 120zM575 -237l-119 -121l-119 121l119 119z" />
    <glyph glyph-name="uniFB5A" unicode="&#x680;" horiz-adv-x="1569" arabic-form="isolated" 
d="M1384 700q59 -75 85.5 -150t26.5 -164q0 -55 -14.5 -110.5t-43 -101.5t-70 -81t-96.5 -48q-57 -15 -133.5 -27.5t-159.5 -21.5t-167 -14t-158 -5q-132 0 -234.5 19t-172.5 62t-106.5 113t-36.5 172q0 56 13 107.5t32.5 91.5t40 64t33.5 24q21 0 31 -11t10 -26
q0 -10 -5.5 -20.5t-11 -26.5t-11 -38t-5.5 -56q0 -59 33.5 -101.5t91 -70t134 -40t162.5 -12.5q39 0 90.5 1t108.5 4.5t118.5 7.5t118.5 10.5t108.5 14t90 17t60.5 21t22 24.5q0 6 -3 14t-15.5 25t-37 48t-67.5 85zM764 -478l-119 -121l-119 121l119 119zM1037 -478
l-119 -121l-120 121l120 119zM768 -237l-119 -121l-120 121l120 119zM1041 -237l-120 -121l-119 121l119 119z" />
    <glyph glyph-name="uniFB5B" unicode="&#x680;" horiz-adv-x="1655" arabic-form="final" 
d="M802 -482l-119 -121l-120 121l120 119zM1074 -482l-119 -121l-119 121l119 119zM1701 36q0 -36 -41 -36q-65 0 -110 8.5t-78 29.5t-58.5 55.5t-50.5 87.5q-74 -59 -157 -98.5t-173.5 -63t-185.5 -33t-193 -9.5q-132 0 -234.5 19t-172.5 62t-106.5 113t-36.5 172
q0 56 13 107.5t32.5 91.5t40 64t33.5 24q21 0 31 -11t10 -26q0 -10 -5.5 -20.5t-11 -26.5t-11 -38t-5.5 -56q0 -59 33.5 -101.5t91 -70t134 -40t162.5 -12.5q137 0 241.5 12t182.5 32t132.5 45.5t92 51t61 51t39 45.5t26 32t21.5 12q19 0 31.5 -11.5t12.5 -32.5
q0 -14 -3 -32t-8.5 -36.5t-12.5 -36.5t-13 -32q23 -45 77.5 -61.5t127.5 -16.5q41 0 41 -35v-179zM802 -237l-119 -121l-120 121l120 119zM1074 -237l-119 -121l-119 121l119 119z" />
    <glyph glyph-name="uniFB5C" unicode="&#x680;" horiz-adv-x="593" arabic-form="initial" 
d="M319 700q61 -70 86.5 -146t25.5 -168q0 -74 -15 -144t-54 -123.5t-107 -86t-173 -32.5h-87q-41 0 -41 36v179q0 35 41 35q27 0 61 0.5t68.5 2t67 5t57.5 11t40.5 19t15.5 27.5q0 14 -4.5 27t-17.5 32.5t-36 48.5t-60 74zM267 -482l-119 -121l-119 121l119 119zM540 -482
l-120 -121l-119 121l119 119zM264 -237l-120 -121l-119 121l119 119zM536 -237l-119 -121l-120 121l120 119z" />
    <glyph glyph-name="uniFB5D" unicode="&#x680;" horiz-adv-x="726" arabic-form="medial" 
d="M-46 215q0 35 41 35h112q77 0 131 12.5t88 39.5t50 68.5t16 97.5q0 16 12.5 31.5t34.5 15.5q18 0 30 -15.5t12 -31.5q0 -114 56.5 -166t169.5 -52h25q19 0 30 -8.5t11 -26.5v-179q0 -19 -11 -27.5t-30 -8.5h-62q-33 0 -64.5 12t-62 33t-57 49t-49.5 61q-17 -33 -47.5 -61
t-67 -49t-77 -33t-77.5 -12h-173q-41 0 -41 36v179zM307 -478l-120 -121l-119 121l119 119zM579 -478l-119 -121l-120 121l120 119zM303 -237l-119 -121l-120 121l120 119zM575 -237l-119 -121l-119 121l119 119z" />
    <glyph glyph-name="uniFB5E" unicode="&#x67a;" horiz-adv-x="1569" arabic-form="isolated" 
d="M919 1061l-119 -119l-119 119l119 122zM801 909l119 -119l-119 -119l-121 119zM1496 386q0 -117 -57 -212q-63 -103 -167 -129q-262 -68 -618 -68q-276 0 -407 81q-143 88 -143 285q0 102 46 199q41 88 73 88q41 0 41 -37q0 -4 -16.5 -46.5t-16.5 -94.5q0 -112 124 -171
q113 -53 297 -53q212 0 436 23q281 31 281 77q0 21 -123 172l138 200q112 -142 112 -314z" />
    <glyph glyph-name="uniFB5F" unicode="&#x67a;" horiz-adv-x="1655" arabic-form="final" 
d="M921 1061l-119 -119l-119 119l119 122zM803 909l119 -120l-119 -119l-121 119zM1701 36q0 -36 -41 -36q-128 0 -187.5 37.5t-109.5 143.5q-250 -204 -709 -204q-276 0 -407 81q-143 88 -143 285q0 102 46 199q41 88 73 88q41 0 41 -37q0 -4 -16.5 -46.5t-16.5 -94.5
q0 -112 124 -171q113 -53 297 -53q322 0 517 73q131 49 208 135q64 73 71 73q44 0 44 -44q0 -62 -37 -137q39 -78 205 -78q41 0 41 -35v-179z" />
    <glyph glyph-name="uniFB60" unicode="&#x67a;" horiz-adv-x="621" arabic-form="initial" 
d="M428 1164l-120 -119l-119 119l119 121zM309 1012l120 -119l-120 -120l-121 120zM431 386q0 -386 -349 -386h-87q-41 0 -41 36v179q0 35 41 35q310 0 310 65q0 39 -118 182l132 203q112 -128 112 -314z" />
    <glyph glyph-name="uniFB61" unicode="&#x67a;" horiz-adv-x="726" arabic-form="medial" 
d="M336 1228l119 -119l-119 -120l-122 120zM336 956l119 -120l-119 -119l-122 119zM773 36q0 -36 -41 -36h-62q-127 0 -233 155q-33 -65 -113 -110t-156 -45h-173q-41 0 -41 36v179q0 35 41 35h112q152 0 218.5 51.5t66.5 166.5q0 47 47 47q17 0 29.5 -15t12.5 -32
q0 -218 226 -218h25q41 0 41 -35v-179z" />
    <glyph glyph-name="uniFB62" unicode="&#x67f;" horiz-adv-x="1569" arabic-form="isolated" 
d="M1055 1068l-119 -120l-120 120l120 121zM783 1068l-120 -120l-119 120l119 121zM1496 386q0 -117 -57 -212q-63 -103 -167 -129q-262 -68 -618 -68q-276 0 -407 81q-143 88 -143 285q0 102 46 199q41 88 73 88q41 0 41 -37q0 -4 -16.5 -46.5t-16.5 -94.5q0 -112 124 -171
q113 -53 297 -53q212 0 436 23q281 31 281 77q0 21 -123 172l138 200q112 -142 112 -314zM1055 824l-119 -119l-120 119l120 122zM783 824l-120 -119l-119 119l119 122z" />
    <glyph glyph-name="uniFB63" unicode="&#x67f;" horiz-adv-x="1655" arabic-form="final" 
d="M1058 1070l-120 -120l-120 120l120 121zM785 1070l-120 -120l-119 120l119 121zM1701 36q0 -36 -41 -36q-128 0 -187.5 37.5t-109.5 143.5q-250 -204 -709 -204q-276 0 -407 81q-143 88 -143 285q0 102 46 199q41 88 73 88q41 0 41 -37q0 -4 -16.5 -46.5t-16.5 -94.5
q0 -112 124 -171q113 -53 297 -53q322 0 517 73q131 49 208 135q64 73 71 73q44 0 44 -44q0 -62 -37 -137q39 -78 205 -78q41 0 41 -35v-179zM1058 824l-120 -119l-120 119l120 122zM785 824l-120 -119l-119 119l119 122z" />
    <glyph glyph-name="uniFB64" unicode="&#x67f;" horiz-adv-x="621" arabic-form="initial" 
d="M563 1172l-119 -119l-119 119l119 122zM291 1172l-119 -119l-120 119l120 122zM431 386q0 -386 -349 -386h-87q-41 0 -41 36v179q0 35 41 35q310 0 310 65q0 39 -118 182l132 203q112 -128 112 -314zM563 927l-119 -119l-119 119l119 122zM291 927l-119 -119l-120 119
l120 122z" />
    <glyph glyph-name="uniFB65" unicode="&#x67f;" horiz-adv-x="726" arabic-form="medial" 
d="M586 1116l-119 -119l-119 119l119 122zM314 1116l-119 -119l-120 119l120 122zM773 36q0 -36 -41 -36h-62q-127 0 -233 155q-33 -65 -113 -110t-156 -45h-173q-41 0 -41 36v179q0 35 41 35h112q152 0 218.5 51.5t66.5 166.5q0 47 47 47q17 0 29.5 -15t12.5 -32
q0 -218 226 -218h25q41 0 41 -35v-179zM590 871l-119 -119l-120 119l120 122zM318 871l-120 -119l-119 119l119 122z" />
    <glyph glyph-name="uniFB66" unicode="&#x679;" horiz-adv-x="1569" arabic-form="isolated" 
d="M1496 386q0 -117 -57 -212q-63 -103 -167 -129q-262 -68 -618 -68q-276 0 -407 81q-143 88 -143 285q0 102 46 199q41 88 73 88q41 0 41 -37q0 -4 -16.5 -46.5t-16.5 -94.5q0 -112 124 -171q113 -53 297 -53q212 0 436 23q281 31 281 77q0 21 -123 172l138 200
q112 -142 112 -314zM1038 919q0 -32 -12.5 -58t-32.5 -44q-41 -40 -99.5 -57.5t-126.5 -17.5q-73 0 -115 31q-29 27 -45 47t-16 29q0 7 5 10.5t12 3.5q9 0 22 -5.5t42 -5.5q19 0 23.5 8.5t4.5 28.5q0 14 -2.5 40.5t-6.5 59t-10 70t-12 73.5l82 74l65 -126l-49 6v-79
q0 -21 -1.5 -38.5t-4.5 -32.5l3 -2q41 54 83 84t84 30q16 0 34.5 -7t34.5 -22t27 -39.5t11 -60.5zM979 890q0 9 -4.5 20t-13 20t-22 15.5t-33.5 6.5q-35 0 -73.5 -27t-78.5 -76l2 -5q49 1 90 5t71 10t46 14t16 17z" />
    <glyph glyph-name="uniFB67" unicode="&#x679;" horiz-adv-x="1655" arabic-form="final" 
d="M1701 36q0 -36 -41 -36q-128 0 -187.5 37.5t-109.5 143.5q-250 -204 -709 -204q-276 0 -407 81q-143 88 -143 285q0 102 46 199q41 88 73 88q41 0 41 -37q0 -4 -16.5 -46.5t-16.5 -94.5q0 -112 124 -171q113 -53 297 -53q322 0 517 73q131 49 208 135q64 73 71 73
q44 0 44 -44q0 -62 -37 -137q39 -78 205 -78q41 0 41 -35v-179zM1038 919q0 -32 -12.5 -58t-32.5 -44q-41 -40 -99.5 -57.5t-126.5 -17.5q-73 0 -115 31q-29 27 -45 47t-16 29q0 7 5 10.5t12 3.5q9 0 22 -5.5t42 -5.5q19 0 23.5 8.5t4.5 28.5q0 14 -2.5 40.5t-6.5 59t-10 70
t-12 73.5l82 74l65 -126l-49 6v-79q0 -21 -1.5 -38.5t-4.5 -32.5l3 -2q41 54 83 84t84 30q16 0 34.5 -7t34.5 -22t27 -39.5t11 -60.5zM979 890q0 9 -4.5 20t-13 20t-22 15.5t-33.5 6.5q-35 0 -73.5 -27t-78.5 -76l2 -5q49 1 90 5t71 10t46 14t16 17z" />
    <glyph glyph-name="uniFB68" unicode="&#x679;" horiz-adv-x="603" arabic-form="initial" 
d="M431 386q0 -386 -349 -386h-87q-41 0 -41 36v179q0 35 41 35q310 0 310 65q0 39 -118 182l132 203q112 -128 112 -314zM511 1007q0 -32 -12.5 -58t-32.5 -44q-41 -40 -100 -58t-126 -18q-73 0 -115 32q-29 26 -45 46t-16 30q0 7 4.5 10t12.5 3q9 0 22 -5.5t42 -5.5
q19 0 23.5 9t4.5 29q0 13 -2.5 39.5t-6.5 59.5t-10 70l-12 74l82 74l64 -126l-48 5v-79q0 -21 -2 -38t-4 -33l2 -2q41 54 83.5 84t84.5 30q16 0 34.5 -7t34.5 -22t27 -39.5t11 -59.5zM451 978q0 9 -4 20t-12.5 20t-22 15t-33.5 6q-35 0 -74 -26.5t-78 -75.5l2 -6q49 1 90 5
t71 10t45.5 14t15.5 18z" />
    <glyph glyph-name="uniFB69" unicode="&#x679;" horiz-adv-x="726" arabic-form="medial" 
d="M773 36q0 -36 -41 -36h-62q-127 0 -233 155q-33 -65 -113 -110t-156 -45h-173q-41 0 -41 36v179q0 35 41 35h112q152 0 218.5 51.5t66.5 166.5q0 47 47 47q17 0 29.5 -15t12.5 -32q0 -218 226 -218h25q41 0 41 -35v-179zM574 961q0 -32 -12 -58t-32 -44q-41 -40 -100 -58
t-126 -18q-73 0 -115 32q-29 27 -45 47t-16 29q0 7 4.5 10.5t11.5 3.5q10 0 23 -5.5t42 -5.5q18 0 22.5 8.5t4.5 28.5q0 14 -2 40.5t-6 59t-10 70t-13 73.5l82 74l65 -126l-48 6v-79q0 -21 -2 -38.5t-5 -32.5l3 -2q41 53 83.5 83.5t84.5 30.5q15 0 34 -7t35 -22t26.5 -39.5
t10.5 -60.5zM515 932q0 9 -4 20t-12.5 20t-22.5 15.5t-34 6.5q-34 0 -73 -27t-78 -76l2 -5q49 0 90 4.5t70.5 10t45.5 14t16 17.5z" />
    <glyph glyph-name="uniFB6A" unicode="&#x6a4;" horiz-adv-x="1563" arabic-form="isolated" 
d="M1471 384q0 -190 -106 -279q-63 -54 -296 -92q-212 -36 -415 -36q-276 0 -407 81q-143 88 -143 285q0 102 46 199q41 88 73 88q41 0 41 -37q0 -4 -16.5 -46.5t-16.5 -94.5q0 -112 124 -171q113 -53 297 -53q383 0 577 43q150 32 150 76q0 28 -16 47q-117 -19 -192 -19
q-100 0 -148 19q-74 31 -74 113q0 130 60 257q72 156 185 156q277 0 277 -536zM1313 582q-9 39 -47 82q-46 52 -97 52q-45 0 -76.5 -22.5t-31.5 -59.5q0 -66 138 -66q76 0 114 14zM1072 1377l120 122l119 -122l-119 -119zM936 1141l119 121l120 -121l-120 -120zM1208 1141
l120 121l120 -121l-120 -120z" />
    <glyph glyph-name="uniFB6B" unicode="&#x6a4;" horiz-adv-x="1614" arabic-form="final" 
d="M1660 36q0 -36 -41 -36h-23q-215 0 -376 116q-61 -44 -217 -88q-182 -51 -349 -51q-276 0 -407 81q-143 88 -143 285q0 102 46 199q41 88 73 88q41 0 41 -37q0 -4 -16.5 -46.5t-16.5 -94.5q0 -112 124 -171q113 -53 297 -53q263 0 396 37q-68 67 -68 175q0 98 73 215
q90 139 215 139q86 0 144 -87.5t58 -219.5q0 -64 -28 -132q-24 -60 -54 -86q74 -19 138 -19h93q41 0 41 -35v-179zM1377 438q0 47 -45 94.5t-92 47.5q-45 0 -104 -34q-64 -38 -64 -76q0 -45 61 -101q56 -54 91 -54q30 0 91.5 46.5t61.5 76.5zM1095 1295l120 122l119 -122
l-119 -119zM959 1059l119 121l120 -121l-120 -120zM1231 1059l119 121l121 -121l-121 -120z" />
    <glyph glyph-name="uniFB6C" unicode="&#x6a4;" horiz-adv-x="730" arabic-form="initial" 
d="M640 384q0 -216 -125 -307q-106 -77 -331 -77h-189q-41 0 -41 36v179q0 35 41 35h237q98 0 195 22q120 29 120 75q0 28 -14 47q-119 -19 -193 -19q-100 0 -148 19q-74 31 -74 113q0 130 59 257q73 156 185 156q278 0 278 -536zM481 582q-9 39 -46 82q-46 52 -97 52
q-45 0 -76.5 -22.5t-31.5 -59.5q0 -66 138 -66q75 0 113 14zM222 1377l119 122l120 -122l-120 -119zM85 1141l120 121l120 -121l-120 -120zM358 1141l119 121l120 -121l-120 -120z" />
    <glyph glyph-name="uniFB6D" unicode="&#x6a4;" horiz-adv-x="828" arabic-form="medial" 
d="M876 36q0 -36 -42 -36h-39q-154 0 -355 112q-95 -64 -183 -87q-90 -25 -234 -25h-28q-41 0 -41 36v179q0 35 41 35h87q105 0 180 15q-69 72 -69 175q0 98 74 215q91 139 214 139q86 0 144.5 -87.5t58.5 -219.5q0 -64 -29 -132q-24 -60 -54 -86q85 -19 138 -19h95
q42 0 42 -35v-179zM590 438q0 47 -44.5 94.5t-91.5 47.5q-45 0 -105 -34q-63 -38 -63 -76q0 -45 60 -101q57 -54 91 -54q31 0 92 46.5t61 76.5zM318 1295l119 122l119 -122l-119 -119zM181 1059l119 121l120 -121l-120 -120zM453 1059l120 121l120 -121l-120 -120z" />
    <glyph glyph-name="uniFB6E" unicode="&#x6a6;" horiz-adv-x="1563" arabic-form="isolated" 
d="M1471 384q0 -190 -106 -279q-63 -54 -296 -92q-212 -36 -415 -36q-276 0 -407 81q-143 88 -143 285q0 102 46 199q41 88 73 88q41 0 41 -37q0 -4 -16.5 -46.5t-16.5 -94.5q0 -112 124 -171q113 -53 297 -53q383 0 577 43q150 32 150 76q0 28 -16 47q-117 -19 -192 -19
q-100 0 -148 19q-74 31 -74 113q0 130 60 257q72 156 185 156q277 0 277 -536zM1313 582q-9 39 -47 82q-46 52 -97 52q-45 0 -76.5 -22.5t-31.5 -59.5q0 -66 138 -66q76 0 114 14zM932 1378l119 122l121 -122l-121 -119zM1205 1378l119 122l120 -122l-120 -119zM936 1141
l119 121l120 -121l-120 -120zM1208 1141l120 121l120 -121l-120 -120z" />
    <glyph glyph-name="uniFB6F" unicode="&#x6a6;" horiz-adv-x="1614" arabic-form="final" 
d="M1660 36q0 -36 -41 -36h-23q-215 0 -376 116q-61 -44 -217 -88q-182 -51 -349 -51q-276 0 -407 81q-143 88 -143 285q0 102 46 199q41 88 73 88q41 0 41 -37q0 -4 -16.5 -46.5t-16.5 -94.5q0 -112 124 -171q113 -53 297 -53q263 0 396 37q-68 67 -68 175q0 98 73 215
q90 139 215 139q86 0 144 -87.5t58 -219.5q0 -64 -28 -132q-24 -60 -54 -86q74 -19 138 -19h93q41 0 41 -35v-179zM1377 438q0 47 -45 94.5t-92 47.5q-45 0 -104 -34q-64 -38 -64 -76q0 -45 61 -101q56 -54 91 -54q30 0 91.5 46.5t61.5 76.5zM959 1304l119 121l120 -121
l-120 -120zM1231 1304l119 121l121 -121l-121 -120zM959 1059l119 121l120 -121l-120 -120zM1231 1059l119 121l121 -121l-121 -120z" />
    <glyph glyph-name="uniFB70" unicode="&#x6a6;" horiz-adv-x="730" arabic-form="initial" 
d="M640 384q0 -216 -125 -307q-106 -77 -331 -77h-189q-41 0 -41 36v179q0 35 41 35h237q98 0 195 22q120 29 120 75q0 28 -14 47q-119 -19 -193 -19q-100 0 -148 19q-74 31 -74 113q0 130 59 257q73 156 185 156q278 0 278 -536zM481 582q-9 39 -46 82q-46 52 -97 52
q-45 0 -76.5 -22.5t-31.5 -59.5q0 -66 138 -66q75 0 113 14zM204 1260l-119 118l120 122l120 -122l-119 -118l119 -119l-120 -120l-120 120zM476 1260l-118 118l119 122l120 -122l-118 -118l118 -119l-120 -120l-119 120z" />
    <glyph glyph-name="uniFB71" unicode="&#x6a6;" horiz-adv-x="828" arabic-form="medial" 
d="M876 36q0 -36 -42 -36h-39q-154 0 -355 112q-95 -64 -183 -87q-90 -25 -234 -25h-28q-41 0 -41 36v179q0 35 41 35h87q105 0 180 15q-69 72 -69 175q0 98 74 215q91 139 214 139q86 0 144.5 -87.5t58.5 -219.5q0 -64 -29 -132q-24 -60 -54 -86q85 -19 138 -19h95
q42 0 42 -35v-179zM590 438q0 47 -44.5 94.5t-91.5 47.5q-45 0 -105 -34q-63 -38 -63 -76q0 -45 60 -101q57 -54 91 -54q31 0 92 46.5t61 76.5zM181 1304l119 121l120 -121l-120 -120zM453 1304l120 121l120 -121l-120 -120zM181 1059l119 121l120 -121l-120 -120zM453 1059
l120 121l120 -121l-120 -120z" />
    <glyph glyph-name="uniFB72" unicode="&#x684;" horiz-adv-x="1261" arabic-form="isolated" 
d="M1084 438h-41q-62 0 -139 -9.5t-157 -32t-156 -61t-135.5 -96t-95.5 -135.5t-36 -182q0 -39 9 -78.5t32 -76.5t61.5 -69t96 -56.5t137 -38.5t184.5 -14q90 0 152.5 7t102 15t58.5 15t22 7q6 0 9.5 -5t3.5 -11q0 -3 -13 -18t-39 -35t-65.5 -42.5t-92.5 -41t-119 -31
t-145 -12.5q-81 0 -159 10.5t-147.5 33t-128.5 57.5t-102 83t-66.5 111t-23.5 141q0 104 34.5 190.5t104.5 158.5t175.5 130.5t247.5 104.5v9q-37 2 -74 8.5t-73.5 13.5t-73.5 12.5t-74 5.5t-63.5 -9.5t-45.5 -22.5t-31.5 -29t-23 -29t-20.5 -22.5t-23 -9.5q-4 0 -9 2t-10 6
t-9 11.5t-4 18.5q0 14 8.5 43.5t24 64.5t38.5 72t52.5 67t65.5 49t78 19q24 0 51 -2t59 -6.5t72 -12t91 -18.5q55 -13 97 -20.5t74.5 -12t57.5 -5.5t47 -1q29 0 64 1t70 3t68.5 4t60.5 3zM875 -171l-120 -122l-119 122l119 119zM755 222l121 -119l-121 -119l-119 119z" />
    <glyph glyph-name="uniFB73" unicode="&#x684;" horiz-adv-x="1265" arabic-form="final" 
d="M1312 36q0 -36 -41 -36h-68q-73 0 -140 18t-118 54t-81.5 92t-30.5 131q0 66 6 129q-129 -35 -226 -80.5t-161 -106t-96 -138.5t-32 -177q0 -39 9 -78.5t32 -76.5t61.5 -69t96 -56.5t137 -38.5t184.5 -14q82 0 144 6t103.5 13t63 12.5t24.5 5.5q13 0 13 -9q0 -3 -9 -18
t-31 -35t-57.5 -42.5t-88 -41t-124 -31t-164.5 -12.5q-81 0 -159 10.5t-147.5 33t-128.5 57.5t-102 83t-66.5 111t-23.5 141q0 104 34.5 190.5t104.5 158.5t175.5 130.5t247.5 104.5v9q-43 10 -88 17t-85.5 12t-73 8t-48.5 3q-37 0 -63.5 -9.5t-45.5 -22.5t-31.5 -29
t-23 -29t-20.5 -22.5t-23 -9.5q-4 0 -9 2t-10 6t-9 11.5t-4 18.5q0 14 8.5 43.5t24 64.5t38.5 72t52.5 67t65.5 49t78 19q32 0 76 -6t94 -15t103 -19t103.5 -19t95 -15t77.5 -6h57q29 0 60 1.5t66.5 4t79.5 7.5l-114 -228q-40 0 -75.5 -1.5t-70.5 -6.5v-37q0 -46 21.5 -75.5
t59.5 -45t88.5 -21t108.5 -5.5h55q41 0 41 -35v-179zM654 177l116 -114l-116 -114l-114 114zM654 -83l116 -114l-116 -112l-114 112z" />
    <glyph glyph-name="uniFB74" unicode="&#x684;" horiz-adv-x="1244" arabic-form="initial" 
d="M1058 289q-26 2 -50.5 1.5t-53 -6t-64 -17.5t-85.5 -33.5t-117.5 -53.5t-158.5 -77q-110 -55 -221.5 -79t-207.5 -24h-105q-41 0 -41 36v179q0 35 41 35h95q64 0 114.5 1.5t95.5 7t88.5 14.5t94 24t110 35.5t137.5 48.5v7q-34 16 -83 36.5t-99.5 38.5t-95.5 30.5
t-73 12.5q-42 0 -71.5 -18.5t-50.5 -40.5t-37 -40.5t-33 -18.5q-20 0 -27.5 9.5t-7.5 27.5q0 10 8 36.5t24 60t39.5 70t55 66t70.5 49t84 19.5q39 0 89 -17t107 -42.5t120 -55.5t128 -55.5t130 -42t128 -16.5h50zM601 -354l121 -120l-121 -119l-120 119zM601 -82l121 -119
l-121 -120l-120 120z" />
    <glyph glyph-name="uniFB75" unicode="&#x684;" horiz-adv-x="1244" arabic-form="medial" 
d="M1081 394q-26 2 -49 3.5t-47 1.5q-29 0 -49.5 -4t-41.5 -14q-2 -49 28 -76t80 -39.5t115 -14t133 -1.5q41 0 41 -35v-179q0 -36 -41 -36h-108q-107 0 -174 28.5t-105 74t-51 101.5t-11 111q-74 -63 -140 -110.5t-127.5 -82.5t-121.5 -58.5t-124.5 -37.5t-136 -20
t-156.5 -6q-41 0 -41 36v179q0 35 41 35q111 0 209 9t189 31t177 61t173 99v7q-24 8 -56.5 16.5t-69 17.5t-74 17t-69.5 14t-56 10t-35 4q-43 0 -72 -18.5t-50 -40.5t-37.5 -40.5t-32.5 -18.5q-20 0 -28 9.5t-8 28.5q0 10 8.5 36t24.5 59.5t40 69.5t55 66t69.5 49t84.5 19
q54 0 106.5 -13.5t115.5 -40.5q97 -41 197.5 -61t207.5 -20l119 1zM651 -354l121 -120l-121 -119l-119 119zM651 -82l121 -119l-121 -120l-119 120z" />
    <glyph glyph-name="uniFB76" unicode="&#x683;" horiz-adv-x="1261" arabic-form="isolated" 
d="M1084 438h-41q-62 0 -139 -9.5t-157 -32t-156 -61t-135.5 -96t-95.5 -135.5t-36 -182q0 -39 9 -78.5t32 -76.5t61.5 -69t96 -56.5t137 -38.5t184.5 -14q90 0 152.5 7t102 15t58.5 15t22 7q6 0 9.5 -5t3.5 -11q0 -3 -13 -18t-39 -35t-65.5 -42.5t-92.5 -41t-119 -31
t-145 -12.5q-81 0 -159 10.5t-147.5 33t-128.5 57.5t-102 83t-66.5 111t-23.5 141q0 104 34.5 190.5t104.5 158.5t175.5 130.5t247.5 104.5v9q-37 2 -74 8.5t-73.5 13.5t-73.5 12.5t-74 5.5t-63.5 -9.5t-45.5 -22.5t-31.5 -29t-23 -29t-20.5 -22.5t-23 -9.5q-4 0 -9 2t-10 6
t-9 11.5t-4 18.5q0 14 8.5 43.5t24 64.5t38.5 72t52.5 67t65.5 49t78 19q24 0 51 -2t59 -6.5t72 -12t91 -18.5q55 -13 97 -20.5t74.5 -12t57.5 -5.5t47 -1q29 0 64 1t70 3t68.5 4t60.5 3zM739 4l-120 -122l-119 122l119 119zM1011 4l-119 -122l-120 122l120 119z" />
    <glyph glyph-name="uniFB77" unicode="&#x683;" horiz-adv-x="1265" arabic-form="final" 
d="M1312 36q0 -36 -41 -36h-68q-73 0 -140 18t-118 54t-81.5 92t-30.5 131q0 66 6 129q-129 -35 -226 -80.5t-161 -106t-96 -138.5t-32 -177q0 -39 9 -78.5t32 -76.5t61.5 -69t96 -56.5t137 -38.5t184.5 -14q82 0 144 6t103.5 13t63 12.5t24.5 5.5q13 0 13 -9q0 -3 -9 -18
t-31 -35t-57.5 -42.5t-88 -41t-124 -31t-164.5 -12.5q-81 0 -159 10.5t-147.5 33t-128.5 57.5t-102 83t-66.5 111t-23.5 141q0 104 34.5 190.5t104.5 158.5t175.5 130.5t247.5 104.5v9q-43 10 -88 17t-85.5 12t-73 8t-48.5 3q-37 0 -63.5 -9.5t-45.5 -22.5t-31.5 -29
t-23 -29t-20.5 -22.5t-23 -9.5q-4 0 -9 2t-10 6t-9 11.5t-4 18.5q0 14 8.5 43.5t24 64.5t38.5 72t52.5 67t65.5 49t78 19q32 0 76 -6t94 -15t103 -19t103.5 -19t95 -15t77.5 -6h57q29 0 60 1.5t66.5 4t79.5 7.5l-114 -228q-40 0 -75.5 -1.5t-70.5 -6.5v-37q0 -46 21.5 -75.5
t59.5 -45t88.5 -21t108.5 -5.5h55q41 0 41 -35v-179zM897 -11l-114 -116l-113 116l113 114zM638 -11l-114 -116l-112 116l112 114z" />
    <glyph glyph-name="uniFB78" unicode="&#x683;" horiz-adv-x="1244" arabic-form="initial" 
d="M1058 289q-26 2 -50.5 1.5t-53 -6t-64 -17.5t-85.5 -33.5t-117.5 -53.5t-158.5 -77q-110 -55 -221.5 -79t-207.5 -24h-105q-41 0 -41 36v179q0 35 41 35h95q64 0 114.5 1.5t95.5 7t88.5 14.5t94 24t110 35.5t137.5 48.5v7q-34 16 -83 36.5t-99.5 38.5t-95.5 30.5
t-73 12.5q-42 0 -71.5 -18.5t-50.5 -40.5t-37 -40.5t-33 -18.5q-20 0 -27.5 9.5t-7.5 27.5q0 10 8 36.5t24 60t39.5 70t55 66t70.5 49t84 19.5q39 0 89 -17t107 -42.5t120 -55.5t128 -55.5t130 -42t128 -16.5h50zM584 -237l-119 -121l-119 121l119 119zM857 -237l-120 -121
l-119 121l119 119z" />
    <glyph glyph-name="uniFB79" unicode="&#x683;" horiz-adv-x="1244" arabic-form="medial" 
d="M1081 394q-26 2 -49 3.5t-47 1.5q-29 0 -49.5 -4t-41.5 -14q-2 -49 28 -76t80 -39.5t115 -14t133 -1.5q41 0 41 -35v-179q0 -36 -41 -36h-108q-107 0 -174 28.5t-105 74t-51 101.5t-11 111q-74 -63 -140 -110.5t-127.5 -82.5t-121.5 -58.5t-124.5 -37.5t-136 -20
t-156.5 -6q-41 0 -41 36v179q0 35 41 35q111 0 209 9t189 31t177 61t173 99v7q-24 8 -56.5 16.5t-69 17.5t-74 17t-69.5 14t-56 10t-35 4q-43 0 -72 -18.5t-50 -40.5t-37.5 -40.5t-32.5 -18.5q-20 0 -28 9.5t-8 28.5q0 10 8.5 36t24.5 59.5t40 69.5t55 66t69.5 49t84.5 19
q54 0 106.5 -13.5t115.5 -40.5q97 -41 197.5 -61t207.5 -20l119 1zM635 -237l-120 -121l-119 121l119 119zM907 -237l-119 -121l-120 121l120 119z" />
    <glyph glyph-name="uniFB7A" unicode="&#x686;" horiz-adv-x="1261" arabic-form="isolated" 
d="M1084 438h-41q-62 0 -139 -9.5t-157 -32t-156 -61t-135.5 -96t-95.5 -135.5t-36 -182q0 -39 9 -78.5t32 -76.5t61.5 -69t96 -56.5t137 -38.5t184.5 -14q90 0 152.5 7t102 15t58.5 15t22 7q6 0 9.5 -5t3.5 -11q0 -3 -13 -18t-39 -35t-65.5 -42.5t-92.5 -41t-119 -31
t-145 -12.5q-81 0 -159 10.5t-147.5 33t-128.5 57.5t-102 83t-66.5 111t-23.5 141q0 104 34.5 190.5t104.5 158.5t175.5 130.5t247.5 104.5v9q-37 2 -74 8.5t-73.5 13.5t-73.5 12.5t-74 5.5t-63.5 -9.5t-45.5 -22.5t-31.5 -29t-23 -29t-20.5 -22.5t-23 -9.5q-4 0 -9 2t-10 6
t-9 11.5t-4 18.5q0 14 8.5 43.5t24 64.5t38.5 72t52.5 67t65.5 49t78 19q24 0 51 -2t59 -6.5t72 -12t91 -18.5q55 -13 97 -20.5t74.5 -12t57.5 -5.5t47 -1q29 0 64 1t70 3t68.5 4t60.5 3zM739 67l-120 -121l-119 121l119 120zM875 -171l-120 -122l-119 122l119 119zM1011 67
l-119 -121l-120 121l120 120z" />
    <glyph glyph-name="uniFB7B" unicode="&#x686;" horiz-adv-x="1265" arabic-form="final" 
d="M1312 36q0 -36 -41 -36h-68q-73 0 -140 18t-118 54t-81.5 92t-30.5 131q0 66 6 129q-129 -35 -226 -80.5t-161 -106t-96 -138.5t-32 -177q0 -39 9 -78.5t32 -76.5t61.5 -69t96 -56.5t137 -38.5t184.5 -14q82 0 144 6t103.5 13t63 12.5t24.5 5.5q13 0 13 -9q0 -3 -9 -18
t-31 -35t-57.5 -42.5t-88 -41t-124 -31t-164.5 -12.5q-81 0 -159 10.5t-147.5 33t-128.5 57.5t-102 83t-66.5 111t-23.5 141q0 104 34.5 190.5t104.5 158.5t175.5 130.5t247.5 104.5v9q-43 10 -88 17t-85.5 12t-73 8t-48.5 3q-37 0 -63.5 -9.5t-45.5 -22.5t-31.5 -29
t-23 -29t-20.5 -22.5t-23 -9.5q-4 0 -9 2t-10 6t-9 11.5t-4 18.5q0 14 8.5 43.5t24 64.5t38.5 72t52.5 67t65.5 49t78 19q32 0 76 -6t94 -15t103 -19t103.5 -19t95 -15t77.5 -6h57q29 0 60 1.5t66.5 4t79.5 7.5l-114 -228q-40 0 -75.5 -1.5t-70.5 -6.5v-37q0 -46 21.5 -75.5
t59.5 -45t88.5 -21t108.5 -5.5h55q41 0 41 -35v-179zM897 -2l-114 -116l-113 116l113 114zM769 -200l-114 -115l-114 115l114 113zM638 -2l-114 -116l-112 116l112 114z" />
    <glyph glyph-name="uniFB7C" unicode="&#x686;" horiz-adv-x="1244" arabic-form="initial" 
d="M1058 289q-26 2 -50.5 1.5t-53 -6t-64 -17.5t-85.5 -33.5t-117.5 -53.5t-158.5 -77q-110 -55 -221.5 -79t-207.5 -24h-105q-41 0 -41 36v179q0 35 41 35h95q64 0 114.5 1.5t95.5 7t88.5 14.5t94 24t110 35.5t137.5 48.5v7q-34 16 -83 36.5t-99.5 38.5t-95.5 30.5
t-73 12.5q-42 0 -71.5 -18.5t-50.5 -40.5t-37 -40.5t-33 -18.5q-20 0 -27.5 9.5t-7.5 27.5q0 10 8 36.5t24 60t39.5 70t55 66t70.5 49t84 19.5q39 0 89 -17t107 -42.5t120 -55.5t128 -55.5t130 -42t128 -16.5h50zM584 -237l-119 -121l-119 121l119 119zM721 -474l-120 -121
l-120 121l120 120zM857 -237l-120 -121l-119 121l119 119z" />
    <glyph glyph-name="uniFB7D" unicode="&#x686;" horiz-adv-x="1244" arabic-form="medial" 
d="M1081 394q-26 2 -49 3.5t-47 1.5q-29 0 -49.5 -4t-41.5 -14q-2 -49 28 -76t80 -39.5t115 -14t133 -1.5q41 0 41 -35v-179q0 -36 -41 -36h-108q-107 0 -174 28.5t-105 74t-51 101.5t-11 111q-74 -63 -140 -110.5t-127.5 -82.5t-121.5 -58.5t-124.5 -37.5t-136 -20
t-156.5 -6q-41 0 -41 36v179q0 35 41 35q111 0 209 9t189 31t177 61t173 99v7q-24 8 -56.5 16.5t-69 17.5t-74 17t-69.5 14t-56 10t-35 4q-43 0 -72 -18.5t-50 -40.5t-37.5 -40.5t-32.5 -18.5q-20 0 -28 9.5t-8 28.5q0 10 8.5 36t24.5 59.5t40 69.5t55 66t69.5 49t84.5 19
q54 0 106.5 -13.5t115.5 -40.5q97 -41 197.5 -61t207.5 -20l119 1zM635 -237l-120 -121l-119 121l119 119zM771 -474l-119 -121l-119 121l119 120zM907 -237l-119 -121l-120 121l120 119z" />
    <glyph glyph-name="uniFB7E" unicode="&#x687;" horiz-adv-x="1261" arabic-form="isolated" 
d="M1084 438h-41q-62 0 -139 -9.5t-157 -32t-156 -61t-135.5 -96t-95.5 -135.5t-36 -182q0 -39 9 -78.5t32 -76.5t61.5 -69t96 -56.5t137 -38.5t184.5 -14q90 0 152.5 7t102 15t58.5 15t22 7q6 0 9.5 -5t3.5 -11q0 -3 -13 -18t-39 -35t-65.5 -42.5t-92.5 -41t-119 -31
t-145 -12.5q-81 0 -159 10.5t-147.5 33t-128.5 57.5t-102 83t-66.5 111t-23.5 141q0 104 34.5 190.5t104.5 158.5t175.5 130.5t247.5 104.5v9q-37 2 -74 8.5t-73.5 13.5t-73.5 12.5t-74 5.5t-63.5 -9.5t-45.5 -22.5t-31.5 -29t-23 -29t-20.5 -22.5t-23 -9.5q-4 0 -9 2t-10 6
t-9 11.5t-4 18.5q0 14 8.5 43.5t24 64.5t38.5 72t52.5 67t65.5 49t78 19q24 0 51 -2t59 -6.5t72 -12t91 -18.5q55 -13 97 -20.5t74.5 -12t57.5 -5.5t47 -1q29 0 64 1t70 3t68.5 4t60.5 3zM743 -141l-119 -121l-119 121l119 119zM1016 -141l-120 -121l-119 121l119 119z
M739 104l-120 -121l-119 121l119 119zM1011 104l-119 -121l-120 121l120 119z" />
    <glyph glyph-name="uniFB7F" unicode="&#x687;" horiz-adv-x="1265" arabic-form="final" 
d="M1312 36q0 -36 -41 -36h-68q-73 0 -140 18t-118 54t-81.5 92t-30.5 131q0 66 6 129q-129 -35 -226 -80.5t-161 -106t-96 -138.5t-32 -177q0 -39 9 -78.5t32 -76.5t61.5 -69t96 -56.5t137 -38.5t184.5 -14q82 0 144 6t103.5 13t63 12.5t24.5 5.5q13 0 13 -9q0 -3 -9 -18
t-31 -35t-57.5 -42.5t-88 -41t-124 -31t-164.5 -12.5q-81 0 -159 10.5t-147.5 33t-128.5 57.5t-102 83t-66.5 111t-23.5 141q0 104 34.5 190.5t104.5 158.5t175.5 130.5t247.5 104.5v9q-43 10 -88 17t-85.5 12t-73 8t-48.5 3q-37 0 -63.5 -9.5t-45.5 -22.5t-31.5 -29
t-23 -29t-20.5 -22.5t-23 -9.5q-4 0 -9 2t-10 6t-9 11.5t-4 18.5q0 14 8.5 43.5t24 64.5t38.5 72t52.5 67t65.5 49t78 19q32 0 76 -6t94 -15t103 -19t103.5 -19t95 -15t77.5 -6h57q29 0 60 1.5t66.5 4t79.5 7.5l-114 -228q-40 0 -75.5 -1.5t-70.5 -6.5v-37q0 -46 21.5 -75.5
t59.5 -45t88.5 -21t108.5 -5.5h55q41 0 41 -35v-179zM847 -126l-95 -96l-95 96l95 95zM630 -126l-94 -96l-94 96l94 95zM844 63l-95 -97l-95 97l95 95zM628 63l-95 -97l-94 97l94 95z" />
    <glyph glyph-name="uniFB80" unicode="&#x687;" horiz-adv-x="1244" arabic-form="initial" 
d="M1058 289q-26 2 -50.5 1.5t-53 -6t-64 -17.5t-85.5 -33.5t-117.5 -53.5t-158.5 -77q-110 -55 -221.5 -79t-207.5 -24h-105q-41 0 -41 36v179q0 35 41 35h95q64 0 114.5 1.5t95.5 7t88.5 14.5t94 24t110 35.5t137.5 48.5v7q-34 16 -83 36.5t-99.5 38.5t-95.5 30.5
t-73 12.5q-42 0 -71.5 -18.5t-50.5 -40.5t-37 -40.5t-33 -18.5q-20 0 -27.5 9.5t-7.5 27.5q0 10 8 36.5t24 60t39.5 70t55 66t70.5 49t84 19.5q39 0 89 -17t107 -42.5t120 -55.5t128 -55.5t130 -42t128 -16.5h50zM467 -355l118 -119l-119 -121l-119 121l117 118l-118 119
l119 119l119 -119zM739 -355l119 -119l-120 -121l-119 121l118 118l-119 119l119 119l120 -119z" />
    <glyph glyph-name="uniFB81" unicode="&#x687;" horiz-adv-x="1244" arabic-form="medial" 
d="M1081 394q-26 2 -49 3.5t-47 1.5q-29 0 -49.5 -4t-41.5 -14q-2 -49 28 -76t80 -39.5t115 -14t133 -1.5q41 0 41 -35v-179q0 -36 -41 -36h-108q-107 0 -174 28.5t-105 74t-51 101.5t-11 111q-74 -63 -140 -110.5t-127.5 -82.5t-121.5 -58.5t-124.5 -37.5t-136 -20
t-156.5 -6q-41 0 -41 36v179q0 35 41 35q111 0 209 9t189 31t177 61t173 99v7q-24 8 -56.5 16.5t-69 17.5t-74 17t-69.5 14t-56 10t-35 4q-43 0 -72 -18.5t-50 -40.5t-37.5 -40.5t-32.5 -18.5q-20 0 -28 9.5t-8 28.5q0 10 8.5 36t24.5 59.5t40 69.5t55 66t69.5 49t84.5 19
q54 0 106.5 -13.5t115.5 -40.5q97 -41 197.5 -61t207.5 -20l119 1zM516 -356l119 -119l-120 -121l-119 121l118 119l-118 119l119 119l120 -119zM789 -356l118 -119l-119 -121l-120 121l119 119l-119 119l120 119l119 -119z" />
    <glyph glyph-name="uniFB82" unicode="&#x68d;" horiz-adv-x="921" arabic-form="isolated" 
d="M848 360q0 -183 -102 -268q-111 -92 -366 -92q-280 0 -280 226q0 79 26 143q24 60 51 60q35 0 35 -65t46 -89.5t168 -24.5q310 0 310 86q0 62 -135 181q-125 107 -227 153l73 236q171 -102 283 -246q118 -156 118 -300zM464 -287l-133 -133l-133 133l133 130zM735 -287
l-132 -133l-133 133l133 130z" />
    <glyph glyph-name="uniFB83" unicode="&#x68d;" horiz-adv-x="1047" arabic-form="final" 
d="M1095 36q0 -36 -41 -36q-124 0 -200 61q-53 43 -99 137q-124 -198 -375 -198q-280 0 -280 226q0 79 26 143q24 60 51 60q35 0 35 -65t46 -89.5t168 -24.5q103 0 184 29q78 28 78 59q0 37 -19 82l-131 313l130 173l185 -512q30 -80 68 -110q43 -33 133 -34q41 0 41 -35
v-179zM449 -287l-132 -133l-133 133l133 130zM717 -287l-132 -133l-133 133l133 130z" />
    <glyph glyph-name="uniFB84" unicode="&#x68c;" horiz-adv-x="921" arabic-form="isolated" 
d="M443 1160l-133 -133l-132 133l132 130zM848 360q0 -183 -102 -268q-111 -92 -366 -92q-280 0 -280 226q0 79 26 143q24 60 51 60q35 0 35 -65t46 -89.5t168 -24.5q310 0 310 86q0 62 -135 181q-125 107 -227 153l73 236q171 -102 283 -246q118 -156 118 -300zM723 1155
l-133 -133l-132 133l132 130z" />
    <glyph glyph-name="uniFB85" unicode="&#x68c;" horiz-adv-x="1047" arabic-form="final" 
d="M646 1160l-133 -133l-132 133l132 130zM1095 36q0 -36 -41 -36q-124 0 -200 61q-53 43 -99 137q-124 -198 -375 -198q-280 0 -280 226q0 79 26 143q24 60 51 60q35 0 35 -65t46 -89.5t168 -24.5q103 0 184 29q78 28 78 59q0 37 -19 82l-131 313l130 173l185 -512
q30 -80 68 -110q43 -33 133 -34q41 0 41 -35v-179zM914 1155l-133 -133l-133 133l133 130z" />
    <glyph glyph-name="uniFB86" unicode="&#x68e;" horiz-adv-x="921" arabic-form="isolated" 
d="M443 1160l-133 -133l-132 133l132 130zM848 360q0 -183 -102 -268q-111 -92 -366 -92q-280 0 -280 226q0 79 26 143q24 60 51 60q35 0 35 -65t46 -89.5t168 -24.5q310 0 310 86q0 62 -135 181q-125 107 -227 153l73 236q171 -102 283 -246q118 -156 118 -300zM589 1404
l-133 -133l-132 133l132 130zM723 1155l-133 -133l-132 133l132 130z" />
    <glyph glyph-name="uniFB87" unicode="&#x68e;" horiz-adv-x="1047" arabic-form="final" 
d="M646 1160l-133 -133l-132 133l132 130zM1095 36q0 -36 -41 -36q-124 0 -200 61q-53 43 -99 137q-124 -198 -375 -198q-280 0 -280 226q0 79 26 143q24 60 51 60q35 0 35 -65t46 -89.5t168 -24.5q103 0 184 29q78 28 78 59q0 37 -19 82l-131 313l130 173l185 -512
q30 -80 68 -110q43 -33 133 -34q41 0 41 -35v-179zM775 1412l-133 -133l-132 133l132 130zM914 1155l-133 -133l-133 133l133 130z" />
    <glyph glyph-name="uniFB88" unicode="&#x688;" horiz-adv-x="921" arabic-form="isolated" 
d="M848 360q0 -183 -102 -268q-111 -92 -366 -92q-280 0 -280 226q0 79 26 143q24 60 51 60q35 0 35 -65t46 -89.5t168 -24.5q310 0 310 86q0 62 -135 181q-125 107 -227 153l73 236q171 -102 283 -246q118 -156 118 -300zM656 1198q0 -32 -12.5 -58t-32.5 -44
q-41 -40 -99.5 -58t-126.5 -18q-73 0 -115 32q-29 27 -45 47t-16 29q0 7 4.5 10.5t12.5 3.5q9 0 22 -5.5t42 -5.5q19 0 23.5 8.5t4.5 28.5q0 14 -2.5 40t-6.5 59t-10 70.5t-12 73.5l82 74l64 -126l-48 6v-80q0 -20 -1.5 -37.5t-4.5 -33.5l3 -1q41 53 83 83t84 30
q16 0 34.5 -6.5t34.5 -21.5t27 -39.5t11 -60.5zM597 1169q0 9 -4.5 20t-13 20t-22 15.5t-33.5 6.5q-35 0 -73.5 -27t-78.5 -76l2 -6q49 1 90 5.5t71 10t46 14t16 17.5z" />
    <glyph glyph-name="uniFB89" unicode="&#x688;" horiz-adv-x="1047" arabic-form="final" 
d="M1095 36q0 -36 -41 -36q-124 0 -200 61q-53 43 -99 137q-124 -198 -375 -198q-280 0 -280 226q0 79 26 143q24 60 51 60q35 0 35 -65t46 -89.5t168 -24.5q103 0 184 29q78 28 78 59q0 37 -19 82l-131 313l130 173l185 -512q30 -80 68 -110q43 -33 133 -34q41 0 41 -35
v-179zM765 1198q0 -32 -12.5 -58t-32.5 -44q-41 -40 -99.5 -58t-126.5 -18q-72 0 -114 32q-29 27 -45 47t-16 29q0 7 4.5 10.5t11.5 3.5q9 0 22.5 -5.5t42.5 -5.5q18 0 22.5 8.5t4.5 28.5q0 14 -2 40t-6.5 59t-10.5 70.5t-12 73.5l82 74l65 -126l-49 6v-80q0 -20 -1.5 -37.5
t-4.5 -33.5l3 -1q41 53 83.5 83t83.5 30q16 0 34.5 -6.5t34.5 -21.5t27 -39.5t11 -60.5zM706 1169q0 9 -4 20t-13 20t-22.5 15.5t-33.5 6.5q-35 0 -73.5 -27t-77.5 -76l2 -6q49 1 90 5.5t70.5 10t45.5 14t16 17.5z" />
    <glyph glyph-name="uniFB8A" unicode="&#x698;" horiz-adv-x="737" arabic-form="isolated" 
d="M487 476q54 -59 89.5 -116.5t57 -114t30.5 -111.5t9 -108q0 -49 -6 -100t-17.5 -100.5t-30 -95.5t-42.5 -84q-35 -55 -61 -89t-46 -53t-34 -25.5t-25 -6.5q-24 0 -63.5 2t-85.5 5.5t-92.5 9t-84.5 12t-61.5 13.5t-23.5 14q0 5 3.5 10t13 10.5t27 12.5t45.5 17
q59 20 116.5 51.5t110.5 69t97.5 77.5t77.5 78t51.5 72t18.5 58q0 42 -42.5 103t-134.5 155zM267 1022l119 121l120 -121l-120 -119zM130 785l120 121l120 -121l-120 -119zM403 785l119 121l120 -121l-120 -119z" />
    <glyph glyph-name="uniFB8B" unicode="&#x698;" horiz-adv-x="828" arabic-form="final" 
d="M876 36q0 -36 -42 -36q-51 0 -97.5 7t-70.5 19q5 -15 6 -34t1 -40t-6 -57t-17.5 -78.5t-30 -87.5t-42.5 -83q-35 -55 -61 -89t-46 -53t-34 -25.5t-25 -6.5q-24 0 -63.5 2t-85.5 5.5t-92.5 9t-84.5 12t-61.5 13.5t-23.5 14q0 5 3.5 10t13 10.5t27 12.5t45.5 17
q59 20 116.5 51.5t110.5 69t97.5 77.5t77.5 78t51.5 72t18.5 58q0 42 -42.5 103t-134.5 155l103 234q40 -60 75.5 -103t73.5 -71.5t85.5 -41t112.5 -10.5q42 0 42 -35v-179zM267 1022l119 121l120 -121l-120 -119zM130 785l120 121l120 -121l-120 -119zM403 785l119 121
l120 -121l-120 -119z" />
    <glyph glyph-name="uniFB8C" unicode="&#x691;" horiz-adv-x="737" arabic-form="isolated" 
d="M673 26q0 -227 -96 -380q-110 -174 -166 -174q-90 0 -242 18q-169 19 -169 38t89 50q170 59 325 198q147 132 147 208t-177 258l103 234q186 -202 186 -450zM647 861q0 -32 -12.5 -58t-32.5 -44q-41 -40 -99.5 -58t-126.5 -18q-73 0 -115 32q-29 27 -45 47t-16 29
q0 7 5 10t12 3q9 0 22 -5t43 -5q18 0 22.5 8.5t4.5 28.5q0 14 -2.5 40t-6.5 59t-10 70.5t-12 73.5l82 74l65 -126l-49 6v-80q0 -21 -1.5 -38t-4.5 -33l3 -1q41 53 83 83t84 30q16 0 34.5 -6.5t34.5 -21.5t27 -40t11 -60zM588 832q0 9 -4.5 20t-13 20t-22 15.5t-33.5 6.5
q-35 0 -73.5 -27t-77.5 -76l1 -6q50 1 91 5t70.5 10t45.5 14.5t16 17.5z" />
    <glyph glyph-name="uniFB8D" unicode="&#x691;" horiz-adv-x="828" arabic-form="final" 
d="M876 36q0 -36 -42 -36q-119 0 -168 26q7 -27 7 -74q0 -51 -23 -136q-30 -100 -73 -170q-110 -174 -166 -174q-90 0 -242 18q-169 19 -169 38t89 50q170 59 325 198q147 132 147 208t-177 258l103 234q91 -131 149 -174q76 -55 198 -52q42 1 42 -35v-179zM647 861
q0 -32 -12.5 -58t-32.5 -44q-41 -40 -99.5 -58t-126.5 -18q-73 0 -115 32q-29 27 -45 47t-16 29q0 7 5 10t12 3q9 0 22 -5t43 -5q18 0 22.5 8.5t4.5 28.5q0 14 -2.5 40t-6.5 59t-10 70.5t-12 73.5l82 74l65 -126l-49 6v-80q0 -21 -1.5 -38t-4.5 -33l3 -1q41 53 83 83t84 30
q16 0 34.5 -6.5t34.5 -21.5t27 -40t11 -60zM588 832q0 9 -4.5 20t-13 20t-22 15.5t-33.5 6.5q-35 0 -73.5 -27t-77.5 -76l1 -6q50 1 91 5t70.5 10t45.5 14.5t16 17.5z" />
    <glyph glyph-name="uniFB8E" unicode="&#x6a9;" horiz-adv-x="1788" arabic-form="isolated" 
d="M1742 1285l-50 -242q-135 -41 -518 -181v-7q143 -151 195 -242q60 -109 60 -248q0 -388 -620 -388h-155q-276 0 -407 81q-143 88 -143 285q0 102 46 199q41 88 73 88q41 0 41 -37q0 -4 -16.5 -46.5t-16.5 -94.5q0 -112 124 -171q113 -53 297 -53h202q230 0 357 37
q110 33 111 82q4 109 -339 395l47 256l304 125q151 58 408 162z" />
    <glyph glyph-name="uniFB8F" unicode="&#x6a9;" horiz-adv-x="1968" arabic-form="final" 
d="M2014 36q0 -36 -41 -36h-74q-170 0 -396 250l-71 78q-48 -351 -623 -351h-155q-276 0 -407 81q-143 88 -143 285q0 102 46 199q41 88 73 88q41 0 41 -37q0 -4 -16.5 -46.5t-16.5 -94.5q0 -112 124 -171q113 -53 297 -53h202q229 0 358 36q110 32 110 79q0 118 -339 399
l47 256q121 56 343 141q276 105 435 146l-66 -235q-296 -83 -568 -190v-9l305 -315q277 -286 446 -286h48q41 0 41 -35v-179z" />
    <glyph glyph-name="uniFB90" unicode="&#x6a9;" horiz-adv-x="885" arabic-form="initial" 
d="M100 998l248 103q138 56 263 103t229 81l-71 -236q-119 -42 -253.5 -88.5t-272.5 -100.5v-11q70 -68 119.5 -125t81.5 -114t47 -119t15 -140q0 -96 -35.5 -162.5t-92.5 -108.5t-128.5 -61t-144.5 -19h-110q-41 0 -41 36v179q0 35 41 35h87q22 0 54.5 1.5t67.5 6.5t70 13
t63 19t45 26t17 35q0 23 -22.5 61.5t-66.5 88t-109 110.5t-149 131z" />
    <glyph glyph-name="uniFB91" unicode="&#x6a9;" horiz-adv-x="1037" arabic-form="medial" 
d="M105 998q29 14 81.5 36t119.5 49t143 56t152.5 56.5t149 51t132.5 38.5l-65 -235q-67 -19 -140.5 -41.5t-148 -47t-146.5 -50.5t-135 -51v-9l306 -315q89 -92 159 -148t123.5 -87t92.5 -41t66 -10h49q41 0 41 -35v-179q0 -36 -41 -36h-75q-85 0 -181 63t-209 187l-75 78
q-2 -62 -21 -110.5t-49 -85t-69 -61.5t-82.5 -41t-89 -23t-88.5 -7h-110q-41 0 -41 36v179q0 35 41 35h102q16 0 43.5 1.5t61 6t68 12t62.5 18t46.5 24t19.5 31.5q0 27 -18 63.5t-58 85t-104.5 110.5t-159.5 140z" />
    <glyph glyph-name="uniFB92" unicode="&#x6af;" horiz-adv-x="1870" arabic-form="isolated" 
d="M1768 920q-41 -6 -95.5 -16.5t-113.5 -23t-119 -25.5t-110 -25t-87 -21.5t-51 -14.5q50 -46 93 -88.5t75 -90.5t50.5 -108.5t18.5 -141.5t-26 -141t-71 -103.5t-105.5 -71t-129 -43.5t-142.5 -22.5t-146 -6.5h-155q-132 0 -234.5 19t-172.5 62t-106.5 113t-36.5 172
q0 56 13 107.5t32.5 91.5t40 64t33.5 24q21 0 31 -11t10 -26q0 -10 -5.5 -20.5t-11 -26.5t-11 -38t-5.5 -56q0 -59 33.5 -101.5t91 -70t134 -40t162.5 -12.5h202q123 0 211.5 10t145 27t83.5 38t28 44q1 28 -28.5 71.5t-75.5 92.5t-101.5 99t-106.5 90l43 237l70 20t115 32
t143.5 38.5t155.5 40t152.5 37t134.5 29.5zM1765 1234q-53 -11 -115.5 -26t-128 -31.5t-129.5 -34.5t-119 -33.5t-97 -27.5t-63 -20l27 111q19 8 60 20.5t96 27.5t119.5 31.5t130.5 32.5t129 31t115 27z" />
    <glyph glyph-name="uniFB93" unicode="&#x6af;" horiz-adv-x="1968" arabic-form="final" 
d="M1765 1234q-53 -11 -115.5 -26t-128 -31.5t-129.5 -34.5t-119 -33.5t-97 -27.5t-63 -20l27 111q19 8 60 20.5t96 27.5t119.5 31.5t130.5 32.5t129 31t115 27zM2014 36q0 -36 -41 -36h-74q-89 0 -186 63t-210 187l-71 78q-10 -74 -40 -128.5t-75.5 -93.5t-103.5 -64
t-123.5 -39.5t-137 -20t-143.5 -5.5h-155q-132 0 -234.5 19t-172.5 62t-106.5 113t-36.5 172q0 56 13 107.5t32.5 91.5t40 64t33.5 24q21 0 31 -11t10 -26q0 -10 -5.5 -20.5t-11 -26.5t-11 -38t-5.5 -56q0 -59 33.5 -101.5t91 -70t134 -40t162.5 -12.5h202q123 0 214 10
t150 27t88.5 38t29.5 44q0 26 -19 57.5t-48.5 67t-66.5 70t-73 65.5t-67.5 55t-51.5 38l43 237l70 20t115 32t143.5 38.5t155.5 40t152.5 37t134.5 29.5l-56 -214q-40 -6 -94 -16.5t-113 -23t-117.5 -25.5t-109 -25t-87.5 -21.5t-52 -14.5q69 -52 134 -109t124 -113
t110 -106t90 -85q67 -62 140 -96.5t132 -34.5h48q41 0 41 -35v-179z" />
    <glyph glyph-name="uniFB94" unicode="&#x6af;" horiz-adv-x="946" arabic-form="initial" 
d="M-46 215q0 35 41 35h87q22 0 54.5 1.5t67.5 6.5t70 12.5t63 18.5t45 25t17 33q1 28 -28.5 71.5t-75.5 92.5t-101.5 99t-105.5 90l43 237q21 6 69.5 20t114.5 32t143.5 38.5t156 40t152.5 37t134 29.5l-55 -214q-41 -6 -95.5 -16.5t-114 -23t-119 -25.5t-109.5 -25
t-87 -21.5t-52 -14.5q50 -46 93.5 -88.5t75.5 -90.5t50 -108.5t18 -141.5q0 -101 -35.5 -170.5t-92.5 -113t-128.5 -62.5t-144.5 -19h-110q-41 0 -41 36v179zM842 1234q-53 -11 -115 -26t-128 -31.5t-130 -34.5t-118.5 -33.5t-96.5 -27.5t-63 -20l26 111q19 8 60 20.5
t96.5 27.5t119.5 31.5t130 32.5t129.5 31t115.5 27z" />
    <glyph glyph-name="uniFB95" unicode="&#x6af;" horiz-adv-x="1037" arabic-form="medial" 
d="M-46 215q0 35 41 35h102q16 0 43.5 1.5t61.5 6t68.5 12t62.5 18t46.5 24t18.5 31.5q0 20 -16.5 48.5t-43 61.5t-60.5 68t-69 68t-69 62t-59 49l42 237l70 20t114.5 32t143 38.5t156.5 40t153 37t134 29.5l-55 -214q-40 -6 -94.5 -16.5t-113 -23t-118 -25.5t-109.5 -25
t-87 -21.5t-51 -14.5q67 -52 132 -109t124.5 -113t110.5 -106t90 -85q67 -62 140 -96.5t132 -34.5h49q41 0 41 -35v-179q0 -36 -41 -36h-75q-88 0 -190.5 64t-220.5 205l-54 59q-2 -62 -21 -110.5t-49 -85t-69 -61.5t-82.5 -41t-89 -23t-88.5 -7h-110q-41 0 -41 36v179z
M834 1234q-52 -11 -115 -26t-128 -31.5t-129 -34.5t-119 -33.5t-96.5 -27.5t-62.5 -20l25 111q19 8 60 20.5t96 27.5t120 31.5t131 32.5t129.5 31t114.5 27z" />
    </font>
</defs>
</svg>
