<?xml version="1.0" standalone="no"?>
<!DOCTYPE svg PUBLIC "-//W3C//DTD SVG 1.1//EN" "http://www.w3.org/Graphics/SVG/1.1/DTD/svg11.dtd" >
<svg xmlns="http://www.w3.org/2000/svg" xmlns:xlink="http://www.w3.org/1999/xlink" version="1.1">
<metadata>
Created by FontForge 20170731 at Fri Oct 21 20:58:10 2016
 By Aleksey,,,
(c)  2012 Bahij Virtual Academy. All rights reserved.
</metadata>
<defs>
<font id="BahijNazanin-Regular" horiz-adv-x="0" >
  <font-face 
    font-family="Bahij Nazanin"
    font-weight="400"
    font-stretch="normal"
    units-per-em="2048"
    panose-1="2 4 5 3 5 2 1 2 2 3"
    ascent="1638"
    descent="-410"
    x-height="753"
    cap-height="1134"
    bbox="-272 -1518 4564.95 2098"
    underline-thickness="40"
    underline-position="-130"
    unicode-range="U+0020-FEFC"
  />
<missing-glyph horiz-adv-x="728" 
d="M0 0v1020h728v-1020h-728zM117 947l247 -372l248 372h-495zM655 881l-247 -371l247 -372v743zM612 73l-248 371l-247 -371h495zM73 138l247 372l-247 371v-743z" />
    <glyph glyph-name="uniFB01" unicode="fi" horiz-adv-x="992" 
d="M763 1127q37 0 65 -28.5t28 -63.5q0 -37 -28 -63.5t-65 -26.5q-35 0 -62 26.5t-27 63.5q0 35 27 63.5t62 28.5zM826 168q0 -33 2 -58t6 -38q10 -19 53 -23l75 -5v-49q-44 1 -94 3t-111 2q-60 0 -110.5 -2t-94.5 -3v49l75 5q44 4 53 23q5 13 6.5 38t1.5 58v365
q0 39 -2 65.5t-9 36.5q-13 17 -61 17h-61v46q74 9 142 28.5t114 43.5l15 -13v-589zM558 1050l-19 -11q-23 22 -50 34.5t-58 12.5q-38 0 -61.5 -11t-37 -37t-17.5 -71t-4 -116v-139l199 6l-11 -87h-188v-463q0 -33 1.5 -58t6.5 -38q10 -19 53 -23l85 -5v-49q-52 1 -103 3
t-112 2q-60 0 -110 -2t-95 -3v49l76 5q42 4 52 23q5 13 7 38t2 58v463l-113 -6v35l113 52v69q0 82 16 138.5t52 97.5l96 108q32 37 72.5 52.5t74.5 15.5q18 0 37 -4.5t36 -13.5v-125z" />
    <glyph glyph-name="uniFB02" unicode="fl" horiz-adv-x="996" 
d="M693 994q0 13 -1.5 28.5t-5.5 29.5t-12.5 23t-21.5 9h-68v-34l-37 -11q-28 22 -56.5 34.5t-59.5 12.5q-38 0 -61.5 -11t-37 -37t-17.5 -71t-4 -116v-139l214 6l-11 -87h-203v-463q0 -33 1.5 -58t6.5 -38q10 -19 53 -23l85 -5v-49q-52 1 -103 3t-112 2q-60 0 -110 -2
t-95 -3v49l76 5q42 4 52 23q5 13 7 38t2 58v463l-113 -6v35l113 52v69q0 82 16 138.5t52 97.5l96 108q32 37 72.5 52.5t74.5 15.5q18 0 40 -4.5t59 -13.5v-45q47 10 108.5 23.5t123.5 37.5l15 -18v-1005q0 -33 1.5 -58t7.5 -38q10 -19 52 -23l75 -5v-49q-44 1 -94 3t-111 2
q-60 0 -110 -2t-95 -3v49l76 5q43 4 52 23q5 13 6.5 38t1.5 58v826z" />
    <glyph glyph-name="uniFC31" unicode="&#xfed3;&#xfef0;" horiz-adv-x="1920" arabic-form="isolated" 
d="M1657 1099l-103 -106l-104 106l104 106zM1728 487q-8 61 -53 112q-48 58 -107 58q-41 0 -72 -30t-31 -71q0 -90 134 -90q88 0 129 21zM1229 0q-431 0 -431 -82q0 -32 186 -56q138 -18 175 -41q32 -21 31 -82q-9 -336 -664 -336q-182 0 -294 76q-130 87 -130 260
q0 128 52 245q46 103 84 103q23 0 23 -20q0 2 -35 -76.5t-35 -161.5q0 -155 117 -220q102 -57 320 -57q202 0 350 45q134 42 133 90q0 20 -105 35q-145 22 -194 38q-104 34 -104 98q0 84 82 168q79 83 174 102q85 19 299 21h118q385 0 385 142q0 33 -12 52q-40 -26 -181 -26
q-186 0 -186 144q0 103 44 208q58 137 155 137q120 0 185 -141q57 -126 57 -331q0 -181 -123 -257q-108 -68 -346 -76q-3 -1 -5 -1h-125z" />
    <glyph glyph-name="uniFC32" unicode="&#xfed3;&#xfef2;" horiz-adv-x="1920" arabic-form="isolated" 
d="M761 -864l-101 -104l-103 104l101 101zM517 -864l-100 -104l-103 104l101 101zM1657 1099l-103 -106l-104 106l104 106zM1728 487q-8 61 -53 112q-48 58 -107 58q-41 0 -72 -30t-31 -71q0 -90 134 -90q88 0 129 21zM1229 0q-431 0 -431 -82q0 -32 186 -56
q138 -18 175 -41q32 -21 31 -82q-9 -336 -664 -336q-182 0 -294 76q-130 87 -130 260q0 128 52 245q46 103 84 103q23 0 23 -20q0 2 -35 -76.5t-35 -161.5q0 -155 117 -220q102 -57 320 -57q202 0 350 45q134 42 133 90q0 20 -105 35q-145 22 -194 38q-104 34 -104 98
q0 84 82 168q79 83 174 102q85 19 299 21h118q385 0 385 142q0 33 -12 52q-40 -26 -181 -26q-186 0 -186 144q0 103 44 208q58 137 155 137q120 0 185 -141q57 -126 57 -331q0 -181 -123 -257q-108 -68 -346 -76q-3 -1 -5 -1h-125z" />
    <glyph glyph-name="uniFC43" unicode="&#xfedf;&#xfef0;" horiz-adv-x="1803" arabic-form="isolated" 
d="M1229 0q-431 0 -431 -82q0 -32 186 -56q138 -18 175 -41q32 -21 31 -82q-9 -336 -664 -336q-182 0 -294 76q-130 87 -130 260q0 128 52 245q46 103 84 103q23 0 23 -20q0 2 -35 -76.5t-35 -161.5q0 -155 117 -220q102 -57 320 -57q202 0 350 45q134 42 133 90
q0 20 -105 35q-145 22 -194 38q-104 34 -104 98q0 84 82 168q79 83 174 102q94 20 339 21h26q123 0 171 25q42 23 42 77q0 61 -11 223l-44 651q-1 11 22 34l91 87l60 -173q16 -49 16 -60q0 -14 -63 9l11 -349v-326q0 -200 -78 -280q-59 -61 -188 -66q-2 -1 -4 -1h-125z" />
    <glyph glyph-name="uniFC44" unicode="&#xfedf;&#xfef2;" horiz-adv-x="1803" arabic-form="isolated" 
d="M761 -864l-101 -104l-103 104l101 101zM517 -864l-100 -104l-103 104l101 101zM1229 0q-431 0 -431 -82q0 -32 186 -56q138 -18 175 -41q32 -21 31 -82q-9 -336 -664 -336q-182 0 -294 76q-130 87 -130 260q0 128 52 245q46 103 84 103q23 0 23 -20q0 2 -35 -76.5
t-35 -161.5q0 -155 117 -220q102 -57 320 -57q202 0 350 45q134 42 133 90q0 20 -105 35q-145 22 -194 38q-104 34 -104 98q0 84 82 168q79 83 174 102q94 20 339 21h26q123 0 171 25q42 23 42 77q0 61 -11 223l-44 651q-1 11 22 34l91 87l60 -173q16 -49 16 -60
q0 -14 -63 9l11 -349v-326q0 -200 -78 -280q-59 -61 -188 -66q-2 -1 -4 -1h-125z" />
    <glyph glyph-name="uniFC64" unicode="&#xfe8c;&#xfeae;" horiz-adv-x="1335" arabic-form="final" 
d="M698 1q-54 3 -116 29q7 -35 6 -86q-5 -149 -113 -312q-103 -154 -176 -154q-299 0 -299 25q0 11 62 27q135 34 283 162q172 149 172 271q0 99 -129 213l69 141q43 -56 88 -98q31 -30 81 -51q45 -19 70 -19h149q167 0 190 204q0 26 25 26q24 0 24 -26q23 -204 190 -204h63
q18 0 18 -35v-78q0 -36 -18 -36h-23q-104 0 -157 24q-63 28 -96 104q-36 -74 -123 -103q-70 -24 -200 -25h-33q-4 0 -7 1zM1166 797l-34 -95q-37 -4 -113 -24q-149 -39 -196 -104q-9 18 -9 41q0 56 70 95q-50 33 -50 95q0 59 59.5 117t126.5 58q95 0 95 -82q0 -16 -13 -30
q-34 32 -96 32q-109 0 -109 -54q0 -32 34 -60t65 -28q85 0 170 39z" />
    <glyph glyph-name="uniFC67" unicode="&#xfe8c;&#xfee6;" horiz-adv-x="1844" arabic-form="final" 
d="M690 584l-103 -107l-105 107l105 107zM1703 797l-34 -95q-37 -4 -114 -24q-148 -39 -196 -104q-9 18 -9 41q0 56 70 95q-50 33 -50 95q0 59 60 117t127 58q95 0 95 -82q0 -16 -13 -30q-35 32 -97 32q-108 0 -108 -54q0 -32 33.5 -60t64.5 -28q86 0 171 39zM1205 1
q-71 3 -127 20q14 -54 14 -137q0 -219 -201 -329q-163 -89 -415 -89q-144 0 -247 75q-127 91 -127 261q0 129 52 244q46 105 84 105q23 0 23 -21q0 3 -35 -76t-35 -162q0 -266 351 -266q159 0 298 50q189 66 189 192q0 115 -147 321l76 144q56 -103 106 -143.5t122 -40.5
h168q167 0 190 204q0 26 25 26q24 0 24 -26q23 -204 190 -204h64q17 0 17 -35v-78q0 -36 -17 -36h-24q-104 0 -157 24q-63 28 -95 104q-37 -74 -123 -103q-66 -22 -184 -25h-50q-5 0 -9 1z" />
    <glyph glyph-name="uniFC6A" unicode="&#xfe92;&#xfeae;" horiz-adv-x="1335" arabic-form="final" 
d="M698 1q-54 3 -116 29q7 -35 6 -86q-5 -149 -113 -312q-103 -154 -176 -154q-299 0 -299 25q0 11 62 27q135 34 283 162q172 149 172 271q0 99 -129 213l69 141q43 -56 88 -98q31 -30 81 -51q45 -19 70 -19h149q167 0 190 204q0 26 25 26q24 0 24 -26q23 -204 190 -204h63
q18 0 18 -35v-78q0 -36 -18 -36h-23q-104 0 -157 24q-63 28 -96 104q-36 -74 -123 -103q-70 -24 -200 -25h-33q-4 0 -7 1zM1102 -261l-102 -106l-104 106l104 106z" />
    <glyph glyph-name="uniFC70" unicode="&#xfe98;&#xfeae;" horiz-adv-x="1335" arabic-form="final" 
d="M698 1q-54 3 -116 29q7 -35 6 -86q-5 -149 -113 -312q-103 -154 -176 -154q-299 0 -299 25q0 11 62 27q135 34 283 162q172 149 172 271q0 99 -129 213l69 141q43 -56 88 -98q31 -30 81 -51q45 -19 70 -19h149q167 0 190 204q0 26 25 26q24 0 24 -26q23 -204 190 -204h63
q18 0 18 -35v-78q0 -36 -18 -36h-23q-104 0 -157 24q-63 28 -96 104q-36 -74 -123 -103q-70 -24 -200 -25h-33q-4 0 -7 1zM955 681l-102 -106l-105 106l105 106zM1198 681l-103 -106l-105 106l105 106z" />
    <glyph glyph-name="uniFC86" unicode="&#xfee0;&#xfef0;" horiz-adv-x="1827" arabic-form="final" 
d="M1229 0q-431 0 -431 -82q0 -32 186 -56q138 -18 175 -41q32 -21 31 -82q-9 -336 -664 -336q-182 0 -294 76q-130 87 -130 260q0 128 52 245q46 103 84 103q23 0 23 -20q0 2 -35 -76.5t-35 -161.5q0 -155 117 -220q102 -57 320 -57q202 0 350 45q134 42 133 90
q0 20 -105 35q-145 22 -194 38q-104 34 -104 98q0 84 82 168q79 83 174 102q94 20 339 21h26q42 0 99 11q102 20 98 161l-23 822l99 103l19 -957q1 -66 54 -104q50 -36 131 -36h23q18 0 18 -35v-78q0 -36 -18 -36h-23q-177 0 -249 118q-63 -106 -198 -117q-3 -1 -5 -1h-125z
" />
    <glyph glyph-name="uniFC87" unicode="&#xfee0;&#xfef2;" horiz-adv-x="1827" arabic-form="final" 
d="M761 -864l-101 -104l-103 104l101 101zM517 -864l-100 -104l-103 104l101 101zM1229 0q-431 0 -431 -82q0 -32 186 -56q138 -18 175 -41q32 -21 31 -82q-9 -336 -664 -336q-182 0 -294 76q-130 87 -130 260q0 128 52 245q46 103 84 103q23 0 23 -20q0 2 -35 -76.5
t-35 -161.5q0 -155 117 -220q102 -57 320 -57q202 0 350 45q134 42 133 90q0 20 -105 35q-145 22 -194 38q-104 34 -104 98q0 84 82 168q79 83 174 102q94 20 339 21h26q42 0 99 11q102 20 98 161l-23 822l99 103l19 -957q1 -66 54 -104q50 -36 131 -36h23q18 0 18 -35v-78
q0 -36 -18 -36h-23q-177 0 -249 118q-63 -106 -198 -117q-3 -1 -5 -1h-125z" />
    <glyph glyph-name="uniFCCC" unicode="&#xfedf;&#xfee4;" horiz-adv-x="1399" arabic-form="initial" 
d="M622 121q0 70 -45 136q-49 71 -115 71q-37 0 -91 -48q-51 -45 -49 -63q0 -13 115 -72t144 -59q41 0 41 35zM883 2q-95 13 -197 123q0 -48 -36 -105q-39 -61 -80 -61q-102 0 -315 155q-62 -60 -104 -83q-57 -31 -132 -31h-23q-36 0 -36 36v78q0 35 36 35h23q147 0 199 68
q184 239 272 239q100 0 177 -132q103 -175 242 -175h12q123 0 171 25q42 23 42 77q0 61 -11 223l-44 651q-1 11 22 34l91 87l60 -173q16 -49 16 -60q0 -14 -63 9l11 -349v-326q0 -200 -78 -280q-62 -63 -202 -67h-39q-8 0 -14 2z" />
    <glyph glyph-name="uniFCFB" unicode="&#xfeb3;&#xfef0;" horiz-adv-x="2487" arabic-form="isolated" 
d="M1229 0q-431 0 -431 -82q0 -32 186 -56q138 -18 175 -41q32 -21 31 -82q-9 -336 -664 -336q-182 0 -294 76q-130 87 -130 260q0 128 52 245q46 103 84 103q23 0 23 -20q0 2 -35 -76.5t-35 -161.5q0 -155 117 -220q102 -57 320 -57q202 0 350 45q134 42 133 90
q0 20 -105 35q-145 22 -194 38q-104 34 -104 98q0 84 82 168q79 83 174 102q94 20 339 21h53q227 0 227 179q0 26 25 26q24 0 24 -26q0 -179 164 -179q163 0 163 179q0 26 23 26q25 0 25 -26q0 -67 28 -115q38 -64 112 -64q76 0 129 23q48 21 48 47q0 79 -86 178l70 151
q94 -135 94 -276q0 -124 -60 -195q-64 -77 -189 -77q-114 0 -172 119q-70 -119 -205 -119q-92 0 -166 119q-83 -110 -252 -118q-2 -1 -4 -1h-125z" />
    <glyph glyph-name="uniFCFC" unicode="&#xfeb3;&#xfef2;" horiz-adv-x="2487" arabic-form="isolated" 
d="M761 -864l-101 -104l-103 104l101 101zM517 -864l-100 -104l-103 104l101 101zM1229 0q-431 0 -431 -82q0 -32 186 -56q138 -18 175 -41q32 -21 31 -82q-9 -336 -664 -336q-182 0 -294 76q-130 87 -130 260q0 128 52 245q46 103 84 103q23 0 23 -20q0 2 -35 -76.5
t-35 -161.5q0 -155 117 -220q102 -57 320 -57q202 0 350 45q134 42 133 90q0 20 -105 35q-145 22 -194 38q-104 34 -104 98q0 84 82 168q79 83 174 102q94 20 339 21h53q227 0 227 179q0 26 25 26q24 0 24 -26q0 -179 164 -179q163 0 163 179q0 26 23 26q25 0 25 -26
q0 -67 28 -115q38 -64 112 -64q76 0 129 23q48 21 48 47q0 79 -86 178l70 151q94 -135 94 -276q0 -124 -60 -195q-64 -77 -189 -77q-114 0 -172 119q-70 -119 -205 -119q-92 0 -166 119q-83 -110 -252 -118q-2 -1 -4 -1h-125z" />
    <glyph glyph-name="uniFCFD" unicode="&#xfeb7;&#xfef0;" horiz-adv-x="2487" arabic-form="isolated" 
d="M2091 1009l-105 -106l-102 106l104 107zM2212 793l-102 -106l-105 106l105 106zM1229 0q-431 0 -431 -82q0 -32 186 -56q138 -18 175 -41q32 -21 31 -82q-9 -336 -664 -336q-182 0 -294 76q-130 87 -130 260q0 128 52 245q46 103 84 103q23 0 23 -20q0 2 -35 -76.5
t-35 -161.5q0 -155 117 -220q102 -57 320 -57q202 0 350 45q134 42 133 90q0 20 -105 35q-145 22 -194 38q-104 34 -104 98q0 84 82 168q79 83 174 102q94 20 339 21h53q227 0 227 179q0 26 25 26q24 0 24 -26q0 -179 164 -179q163 0 163 179q0 26 23 26q25 0 25 -26
q0 -67 28 -115q38 -64 112 -64q76 0 129 23q48 21 48 47q0 79 -86 178l70 151q94 -135 94 -276q0 -124 -60 -195q-64 -77 -189 -77q-114 0 -172 119q-70 -119 -205 -119q-92 0 -166 119q-83 -110 -252 -118q-2 -1 -4 -1h-125zM1970 793l-103 -106l-104 106l104 106z" />
    <glyph glyph-name="uniFCFE" unicode="&#xfeb7;&#xfef2;" horiz-adv-x="2487" arabic-form="isolated" 
d="M761 -864l-101 -104l-103 104l101 101zM517 -864l-100 -104l-103 104l101 101zM2091 1009l-105 -106l-102 106l104 107zM2212 793l-102 -106l-105 106l105 106zM1229 0q-431 0 -431 -82q0 -32 186 -56q138 -18 175 -41q32 -21 31 -82q-9 -336 -664 -336q-182 0 -294 76
q-130 87 -130 260q0 128 52 245q46 103 84 103q23 0 23 -20q0 2 -35 -76.5t-35 -161.5q0 -155 117 -220q102 -57 320 -57q202 0 350 45q134 42 133 90q0 20 -105 35q-145 22 -194 38q-104 34 -104 98q0 84 82 168q79 83 174 102q94 20 339 21h53q227 0 227 179q0 26 25 26
q24 0 24 -26q0 -179 164 -179q163 0 163 179q0 26 23 26q25 0 25 -26q0 -67 28 -115q38 -64 112 -64q76 0 129 23q48 21 48 47q0 79 -86 178l70 151q94 -135 94 -276q0 -124 -60 -195q-64 -77 -189 -77q-114 0 -172 119q-70 -119 -205 -119q-92 0 -166 119
q-83 -110 -252 -118q-2 -1 -4 -1h-125zM1970 793l-103 -106l-104 106l104 106z" />
    <glyph glyph-name="uniFD05" unicode="&#xfebb;&#xfef0;" horiz-adv-x="2646" arabic-form="isolated" 
d="M2475 285q0 48 -57.5 89t-134.5 41q-116 0 -302 -148q-123 -98 -123 -107q0 -11 67 -11q550 0 550 136zM1229 0q-431 0 -431 -82q0 -32 186 -56q138 -18 175 -41q32 -21 31 -82q-9 -336 -664 -336q-182 0 -294 76q-130 87 -130 260q0 128 52 245q46 103 84 103
q23 0 23 -20q0 2 -35 -76.5t-35 -161.5q0 -155 117 -220q102 -57 320 -57q202 0 350 45q134 42 133 90q0 20 -105 35q-145 22 -194 38q-104 34 -104 98q0 84 82 168q79 83 174 102q94 20 339 21h53q227 0 227 179q0 26 25 26t24 -26q-3 -71 34 -119q34 -45 85 -52
q236 230 346 304q131 89 261 89q92 0 149.5 -55.5t57.5 -147.5q0 -181 -200 -272q-164 -75 -418 -75q-171 0 -236 23t-101 96q-83 -110 -252 -118q-2 -1 -4 -1h-125z" />
    <glyph glyph-name="uniFD06" unicode="&#xfebb;&#xfef2;" horiz-adv-x="2646" arabic-form="isolated" 
d="M761 -864l-101 -104l-103 104l101 101zM517 -864l-100 -104l-103 104l101 101zM2475 285q0 48 -57.5 89t-134.5 41q-116 0 -302 -148q-123 -98 -123 -107q0 -11 67 -11q550 0 550 136zM1229 0q-431 0 -431 -82q0 -32 186 -56q138 -18 175 -41q32 -21 31 -82
q-9 -336 -664 -336q-182 0 -294 76q-130 87 -130 260q0 128 52 245q46 103 84 103q23 0 23 -20q0 2 -35 -76.5t-35 -161.5q0 -155 117 -220q102 -57 320 -57q202 0 350 45q134 42 133 90q0 20 -105 35q-145 22 -194 38q-104 34 -104 98q0 84 82 168q79 83 174 102
q94 20 339 21h53q227 0 227 179q0 26 25 26t24 -26q-3 -71 34 -119q34 -45 85 -52q236 230 346 304q131 89 261 89q92 0 149.5 -55.5t57.5 -147.5q0 -181 -200 -272q-164 -75 -418 -75q-171 0 -236 23t-101 96q-83 -110 -252 -118q-2 -1 -4 -1h-125z" />
    <glyph glyph-name="uniFD07" unicode="&#xfebf;&#xfef0;" horiz-adv-x="2646" arabic-form="isolated" 
d="M2274 935l-103 -107l-105 107l105 106zM2475 285q0 48 -57.5 89t-134.5 41q-116 0 -302 -148q-123 -98 -123 -107q0 -11 67 -11q550 0 550 136zM1229 0q-431 0 -431 -82q0 -32 186 -56q138 -18 175 -41q32 -21 31 -82q-9 -336 -664 -336q-182 0 -294 76q-130 87 -130 260
q0 128 52 245q46 103 84 103q23 0 23 -20q0 2 -35 -76.5t-35 -161.5q0 -155 117 -220q102 -57 320 -57q202 0 350 45q134 42 133 90q0 20 -105 35q-145 22 -194 38q-104 34 -104 98q0 84 82 168q79 83 174 102q94 20 339 21h53q227 0 227 179q0 26 25 26t24 -26
q-3 -71 34 -119q34 -45 85 -52q236 230 346 304q131 89 261 89q92 0 149.5 -55.5t57.5 -147.5q0 -181 -200 -272q-164 -75 -418 -75q-171 0 -236 23t-101 96q-83 -110 -252 -118q-2 -1 -4 -1h-125z" />
    <glyph glyph-name="uniFD08" unicode="&#xfebf;&#xfef2;" horiz-adv-x="2646" arabic-form="isolated" 
d="M761 -864l-101 -104l-103 104l101 101zM517 -864l-100 -104l-103 104l101 101zM2274 935l-103 -107l-105 107l105 106zM2475 285q0 48 -57.5 89t-134.5 41q-116 0 -302 -148q-123 -98 -123 -107q0 -11 67 -11q550 0 550 136zM1229 0q-431 0 -431 -82q0 -32 186 -56
q138 -18 175 -41q32 -21 31 -82q-9 -336 -664 -336q-182 0 -294 76q-130 87 -130 260q0 128 52 245q46 103 84 103q23 0 23 -20q0 2 -35 -76.5t-35 -161.5q0 -155 117 -220q102 -57 320 -57q202 0 350 45q134 42 133 90q0 20 -105 35q-145 22 -194 38q-104 34 -104 98
q0 84 82 168q79 83 174 102q94 20 339 21h53q227 0 227 179q0 26 25 26t24 -26q-3 -71 34 -119q34 -45 85 -52q236 230 346 304q131 89 261 89q92 0 149.5 -55.5t57.5 -147.5q0 -181 -200 -272q-164 -75 -418 -75q-171 0 -236 23t-101 96q-83 -110 -252 -118q-2 -1 -4 -1
h-125z" />
    <glyph glyph-name="uniFD0D" unicode="&#xfeb7;&#xfeae;" horiz-adv-x="1879" arabic-form="isolated" 
d="M1481 1009l-104 -106l-102 106l103 107zM1603 793l-103 -106l-104 106l104 106zM681 2q-46 5 -99 28q7 -35 6 -86q-5 -149 -113 -312q-103 -154 -176 -154q-299 0 -299 25q0 11 62 27q135 34 283 162q172 149 172 271q0 99 -129 213l69 141q43 -56 88 -98q31 -30 81 -51
q45 -19 70 -19h50q228 0 228 179q0 26 24 26t24 -26q0 -179 164 -179q163 0 163 179q0 26 24 26q25 0 25 -26q0 -67 28 -115q37 -64 112 -64t128 23q49 21 49 47q0 79 -86 178l69 151q95 -135 95 -276q0 -124 -60 -195q-65 -77 -190 -77q-114 0 -172 119q-69 -119 -205 -119
q-91 0 -166 119q-85 -113 -260 -119h-44q-8 0 -15 2zM1360 793l-103 -106l-104 106l104 106z" />
    <glyph glyph-name="uniFD0E" unicode="&#xfeb3;&#xfeae;" horiz-adv-x="1879" arabic-form="isolated" 
d="M681 2q-46 5 -99 28q7 -35 6 -86q-5 -149 -113 -312q-103 -154 -176 -154q-299 0 -299 25q0 11 62 27q135 34 283 162q172 149 172 271q0 99 -129 213l69 141q43 -56 88 -98q31 -30 81 -51q45 -19 70 -19h50q228 0 228 179q0 26 24 26t24 -26q0 -179 164 -179
q163 0 163 179q0 26 24 26q25 0 25 -26q0 -67 28 -115q37 -64 112 -64t128 23q49 21 49 47q0 79 -86 178l69 151q95 -135 95 -276q0 -124 -60 -195q-65 -77 -190 -77q-114 0 -172 119q-69 -119 -205 -119q-91 0 -166 119q-85 -113 -260 -119h-44q-8 0 -15 2z" />
    <glyph glyph-name="uniFD0F" unicode="&#xfebb;&#xfeae;" horiz-adv-x="2038" arabic-form="isolated" 
d="M1875 285q0 48 -58 89t-134 41q-116 0 -303 -148q-123 -98 -123 -107q0 -11 68 -11q550 0 550 136zM698 1q-54 3 -116 29q7 -35 6 -86q-5 -149 -113 -312q-103 -154 -176 -154q-299 0 -299 25q0 11 62 27q135 34 283 162q172 149 172 271q0 99 -129 213l69 141
q43 -56 88 -98q31 -30 81 -51q45 -19 70 -19h59q228 0 228 179q0 26 25 26t23 -26q-2 -71 35 -119q34 -45 85 -52q236 230 346 304q131 89 260 89q92 0 149.5 -55.5t57.5 -147.5q0 -181 -199 -272q-164 -75 -418 -75q-172 0 -236.5 23t-101.5 96q-87 -116 -270 -119h-34
q-4 0 -7 1z" />
    <glyph glyph-name="uniFD10" unicode="&#xfebf;&#xfeae;" horiz-adv-x="2038" arabic-form="isolated" 
d="M1674 935l-103 -107l-105 107l105 106zM1875 285q0 48 -58 89t-134 41q-116 0 -303 -148q-123 -98 -123 -107q0 -11 68 -11q550 0 550 136zM698 1q-54 3 -116 29q7 -35 6 -86q-5 -149 -113 -312q-103 -154 -176 -154q-299 0 -299 25q0 11 62 27q135 34 283 162
q172 149 172 271q0 99 -129 213l69 141q43 -56 88 -98q31 -30 81 -51q45 -19 70 -19h59q228 0 228 179q0 26 25 26t23 -26q-2 -71 35 -119q34 -45 85 -52q236 230 346 304q131 89 260 89q92 0 149.5 -55.5t57.5 -147.5q0 -181 -199 -272q-164 -75 -418 -75q-172 0 -236.5 23
t-101.5 96q-87 -116 -270 -119h-34q-4 0 -7 1z" />
    <glyph glyph-name="uniFD17" unicode="&#xfeb4;&#xfef0;" horiz-adv-x="2553" arabic-form="final" 
d="M1229 0q-431 0 -431 -82q0 -32 186 -56q138 -18 175 -41q32 -21 31 -82q-9 -336 -664 -336q-182 0 -294 76q-130 87 -130 260q0 128 52 245q46 103 84 103q23 0 23 -20q0 2 -35 -76.5t-35 -161.5q0 -155 117 -220q102 -57 320 -57q202 0 350 45q134 42 133 90
q0 20 -105 35q-145 22 -194 38q-104 34 -104 98q0 84 82 168q79 83 174 102q94 20 339 21h53q227 0 227 179q0 26 25 26q24 0 24 -26q0 -179 164 -179q163 0 163 179q0 26 23 26q25 0 25 -26q0 -67 28 -115q38 -64 112 -64q159 0 159 179q0 26 23 26q25 0 25 -26
q0 -179 179 -179h22q17 0 17 -35v-78q0 -36 -17 -36h-24q-135 0 -205 114q-74 -114 -173 -114q-114 0 -172 119q-70 -119 -205 -119q-92 0 -166 119q-83 -109 -252 -118q-2 -1 -4 -1h-125z" />
    <glyph glyph-name="uniFD18" unicode="&#xfeb4;&#xfef2;" horiz-adv-x="2553" arabic-form="final" 
d="M761 -864l-101 -104l-103 104l101 101zM517 -864l-100 -104l-103 104l101 101zM1229 0q-431 0 -431 -82q0 -32 186 -56q138 -18 175 -41q32 -21 31 -82q-9 -336 -664 -336q-182 0 -294 76q-130 87 -130 260q0 128 52 245q46 103 84 103q23 0 23 -20q0 2 -35 -76.5
t-35 -161.5q0 -155 117 -220q102 -57 320 -57q202 0 350 45q134 42 133 90q0 20 -105 35q-145 22 -194 38q-104 34 -104 98q0 84 82 168q79 83 174 102q94 20 339 21h53q227 0 227 179q0 26 25 26q24 0 24 -26q0 -179 164 -179q163 0 163 179q0 26 23 26q25 0 25 -26
q0 -67 28 -115q38 -64 112 -64q159 0 159 179q0 26 23 26q25 0 25 -26q0 -179 179 -179h22q17 0 17 -35v-78q0 -36 -17 -36h-24q-135 0 -205 114q-74 -114 -173 -114q-114 0 -172 119q-70 -119 -205 -119q-92 0 -166 119q-83 -109 -252 -118q-2 -1 -4 -1h-125z" />
    <glyph glyph-name="uniFD19" unicode="&#xfeb8;&#xfef0;" horiz-adv-x="2553" arabic-form="final" 
d="M2096 897l-104 -106l-103 106l105 107zM2217 681l-102 -106l-104 106l104 106zM1975 681l-103 -106l-104 106l104 106zM1229 0q-431 0 -431 -82q0 -32 186 -56q138 -18 175 -41q32 -21 31 -82q-9 -336 -664 -336q-182 0 -294 76q-130 87 -130 260q0 128 52 245
q46 103 84 103q23 0 23 -20q0 2 -35 -76.5t-35 -161.5q0 -155 117 -220q102 -57 320 -57q202 0 350 45q134 42 133 90q0 20 -105 35q-145 22 -194 38q-104 34 -104 98q0 84 82 168q79 83 174 102q94 20 339 21h53q227 0 227 179q0 26 25 26q24 0 24 -26q0 -179 164 -179
q163 0 163 179q0 26 23 26q25 0 25 -26q0 -67 28 -115q38 -64 112 -64q159 0 159 179q0 26 23 26q25 0 25 -26q0 -179 179 -179h22q17 0 17 -35v-78q0 -36 -17 -36h-24q-135 0 -205 114q-74 -114 -173 -114q-114 0 -172 119q-70 -119 -205 -119q-92 0 -166 119
q-83 -109 -252 -118q-2 -1 -4 -1h-125z" />
    <glyph glyph-name="uniFD1A" unicode="&#xfeb8;&#xfef2;" horiz-adv-x="2553" arabic-form="final" 
d="M761 -864l-101 -104l-103 104l101 101zM517 -864l-100 -104l-103 104l101 101zM2096 897l-104 -106l-103 106l105 107zM2217 681l-102 -106l-104 106l104 106zM1975 681l-103 -106l-104 106l104 106zM1229 0q-431 0 -431 -82q0 -32 186 -56q138 -18 175 -41
q32 -21 31 -82q-9 -336 -664 -336q-182 0 -294 76q-130 87 -130 260q0 128 52 245q46 103 84 103q23 0 23 -20q0 2 -35 -76.5t-35 -161.5q0 -155 117 -220q102 -57 320 -57q202 0 350 45q134 42 133 90q0 20 -105 35q-145 22 -194 38q-104 34 -104 98q0 84 82 168
q79 83 174 102q94 20 339 21h53q227 0 227 179q0 26 25 26q24 0 24 -26q0 -179 164 -179q163 0 163 179q0 26 23 26q25 0 25 -26q0 -67 28 -115q38 -64 112 -64q159 0 159 179q0 26 23 26q25 0 25 -26q0 -179 179 -179h22q17 0 17 -35v-78q0 -36 -17 -36h-24
q-135 0 -205 114q-74 -114 -173 -114q-114 0 -172 119q-70 -119 -205 -119q-92 0 -166 119q-83 -109 -252 -118q-2 -1 -4 -1h-125z" />
    <glyph glyph-name="uniFD21" unicode="&#xfebc;&#xfef0;" horiz-adv-x="2669" arabic-form="final" 
d="M2484 285q0 48 -57.5 89t-134.5 41q-116 0 -302 -148q-123 -98 -123 -107q0 -11 67 -11q550 0 550 136zM1229 0q-431 0 -431 -82q0 -32 186 -56q138 -18 175 -41q32 -21 31 -82q-9 -336 -664 -336q-182 0 -294 76q-130 87 -130 260q0 128 52 245q46 103 84 103
q23 0 23 -20q0 2 -35 -76.5t-35 -161.5q0 -155 117 -220q102 -57 320 -57q202 0 350 45q134 42 133 90q0 20 -105 35q-145 22 -194 38q-104 34 -104 98q0 84 82 168q79 83 174 102q95 20 349 21h52q227 0 227 179q0 26 25 26q26 0 24 -26q-3 -71 34 -119q34 -45 85 -52
q236 230 346 304q131 89 261 89q92 0 149.5 -55.5t57.5 -147.5q0 -86 -91 -205q37 7 82 7h108q16 0 16 -35v-78q0 -36 -16 -36h-25q-124 0 -231 21q-88 16 -134 16q-7 0 -114 -18.5t-213 -18.5q-171 0 -236 23t-101 96q-86 -114 -263 -119h-127z" />
    <glyph glyph-name="uniFD22" unicode="&#xfebc;&#xfef2;" horiz-adv-x="2669" arabic-form="final" 
d="M761 -864l-101 -104l-103 104l101 101zM517 -864l-100 -104l-103 104l101 101zM2484 285q0 48 -57.5 89t-134.5 41q-116 0 -302 -148q-123 -98 -123 -107q0 -11 67 -11q550 0 550 136zM1229 0q-431 0 -431 -82q0 -32 186 -56q138 -18 175 -41q32 -21 31 -82
q-9 -336 -664 -336q-182 0 -294 76q-130 87 -130 260q0 128 52 245q46 103 84 103q23 0 23 -20q0 2 -35 -76.5t-35 -161.5q0 -155 117 -220q102 -57 320 -57q202 0 350 45q134 42 133 90q0 20 -105 35q-145 22 -194 38q-104 34 -104 98q0 84 82 168q79 83 174 102
q95 20 349 21h52q227 0 227 179q0 26 25 26q26 0 24 -26q-3 -71 34 -119q34 -45 85 -52q236 230 346 304q131 89 261 89q92 0 149.5 -55.5t57.5 -147.5q0 -86 -91 -205q37 7 82 7h108q16 0 16 -35v-78q0 -36 -16 -36h-25q-124 0 -231 21q-88 16 -134 16q-7 0 -114 -18.5
t-213 -18.5q-171 0 -236 23t-101 96q-86 -114 -263 -119h-127z" />
    <glyph glyph-name="uniFD23" unicode="&#xfec0;&#xfef0;" horiz-adv-x="2669" arabic-form="final" 
d="M2283 935l-103 -107l-105 107l105 106zM2484 285q0 48 -57.5 89t-134.5 41q-116 0 -302 -148q-123 -98 -123 -107q0 -11 67 -11q550 0 550 136zM1229 0q-431 0 -431 -82q0 -32 186 -56q138 -18 175 -41q32 -21 31 -82q-9 -336 -664 -336q-182 0 -294 76q-130 87 -130 260
q0 128 52 245q46 103 84 103q23 0 23 -20q0 2 -35 -76.5t-35 -161.5q0 -155 117 -220q102 -57 320 -57q202 0 350 45q134 42 133 90q0 20 -105 35q-145 22 -194 38q-104 34 -104 98q0 84 82 168q79 83 174 102q95 20 349 21h52q227 0 227 179q0 26 25 26q26 0 24 -26
q-3 -71 34 -119q34 -45 85 -52q236 230 346 304q131 89 261 89q92 0 149.5 -55.5t57.5 -147.5q0 -86 -91 -205q37 7 82 7h108q16 0 16 -35v-78q0 -36 -16 -36h-25q-124 0 -231 21q-88 16 -134 16q-7 0 -114 -18.5t-213 -18.5q-171 0 -236 23t-101 96q-86 -114 -263 -119
h-127z" />
    <glyph glyph-name="uniFD24" unicode="&#xfec0;&#xfef2;" horiz-adv-x="2669" arabic-form="final" 
d="M761 -864l-101 -104l-103 104l101 101zM517 -864l-100 -104l-103 104l101 101zM2283 935l-103 -107l-105 107l105 106zM2484 285q0 48 -57.5 89t-134.5 41q-116 0 -302 -148q-123 -98 -123 -107q0 -11 67 -11q550 0 550 136zM1229 0q-431 0 -431 -82q0 -32 186 -56
q138 -18 175 -41q32 -21 31 -82q-9 -336 -664 -336q-182 0 -294 76q-130 87 -130 260q0 128 52 245q46 103 84 103q23 0 23 -20q0 2 -35 -76.5t-35 -161.5q0 -155 117 -220q102 -57 320 -57q202 0 350 45q134 42 133 90q0 20 -105 35q-145 22 -194 38q-104 34 -104 98
q0 84 82 168q79 83 174 102q95 20 349 21h52q227 0 227 179q0 26 25 26q26 0 24 -26q-3 -71 34 -119q34 -45 85 -52q236 230 346 304q131 89 261 89q92 0 149.5 -55.5t57.5 -147.5q0 -86 -91 -205q37 7 82 7h108q16 0 16 -35v-78q0 -36 -16 -36h-25q-124 0 -231 21
q-88 16 -134 16q-7 0 -114 -18.5t-213 -18.5q-171 0 -236 23t-101 96q-86 -114 -263 -119h-127z" />
    <glyph glyph-name="uniFD29" unicode="&#xfeb8;&#xfeae;" horiz-adv-x="1951" arabic-form="final" 
d="M1496 897l-104 -106l-103 106l105 107zM1617 681l-102 -106l-105 106l105 106zM1375 681l-103 -106l-104 106l104 106zM698 1q-54 3 -116 29q7 -35 6 -86q-5 -149 -113 -312q-103 -154 -176 -154q-299 0 -299 25q0 11 62 27q135 34 283 162q172 149 172 271
q0 99 -129 213l69 141q43 -56 88 -98q31 -30 81 -51q45 -19 70 -19h59q228 0 228 179q0 26 25 26q23 0 23 -26q0 -179 164 -179q163 0 163 179q0 26 24 26q25 0 25 -26q0 -67 28 -115q37 -64 112 -64q158 0 158 179q0 26 24 26q25 0 25 -26q0 -179 178 -179h23q16 0 16 -35
v-78q0 -36 -16 -36h-25q-134 0 -205 114q-73 -114 -173 -114q-113 0 -172 119q-69 -119 -205 -119q-91 0 -166 119q-87 -115 -270 -119h-34q-4 0 -7 1z" />
    <glyph glyph-name="uniFD2A" unicode="&#xfeb4;&#xfeae;" horiz-adv-x="1951" arabic-form="final" 
d="M698 1q-54 3 -116 29q7 -35 6 -86q-5 -149 -113 -312q-103 -154 -176 -154q-299 0 -299 25q0 11 62 27q135 34 283 162q172 149 172 271q0 99 -129 213l69 141q43 -56 88 -98q31 -30 81 -51q45 -19 70 -19h59q228 0 228 179q0 26 25 26q23 0 23 -26q0 -179 164 -179
q163 0 163 179q0 26 24 26q25 0 25 -26q0 -67 28 -115q37 -64 112 -64q158 0 158 179q0 26 24 26q25 0 25 -26q0 -179 178 -179h23q16 0 16 -35v-78q0 -36 -16 -36h-25q-134 0 -205 114q-73 -114 -173 -114q-113 0 -172 119q-69 -119 -205 -119q-91 0 -166 119
q-87 -115 -270 -119h-34q-4 0 -7 1z" />
    <glyph glyph-name="uniFD2B" unicode="&#xfebc;&#xfeae;" horiz-adv-x="2058" arabic-form="final" 
d="M1875 285q0 48 -58 89t-134 41q-116 0 -303 -148q-123 -98 -123 -107q0 -11 68 -11q550 0 550 136zM698 1q-54 3 -116 29q7 -35 6 -86q-5 -149 -113 -312q-103 -154 -176 -154q-299 0 -299 25q0 11 62 27q135 34 283 162q172 149 172 271q0 99 -129 213l69 141
q43 -56 88 -98q31 -30 81 -51q45 -19 70 -19h59q228 0 228 179q0 26 25 26t23 -26q-2 -71 35 -119q34 -45 85 -52q236 230 346 304q131 89 260 89q92 0 149.5 -55.5t57.5 -147.5q0 -86 -91 -205q37 7 82 7h108q17 0 17 -35v-78q0 -36 -17 -36h-24q-124 0 -232 21
q-88 16 -133 16q-8 0 -115 -18.5t-212 -18.5q-172 0 -236.5 23t-101.5 96q-87 -116 -270 -119h-34q-4 0 -7 1z" />
    <glyph glyph-name="uniFD2C" unicode="&#xfec0;&#xfeae;" horiz-adv-x="2058" arabic-form="final" 
d="M1674 935l-103 -107l-105 107l105 106zM1875 285q0 48 -58 89t-134 41q-116 0 -303 -148q-123 -98 -123 -107q0 -11 68 -11q550 0 550 136zM698 1q-54 3 -116 29q7 -35 6 -86q-5 -149 -113 -312q-103 -154 -176 -154q-299 0 -299 25q0 11 62 27q135 34 283 162
q172 149 172 271q0 99 -129 213l69 141q43 -56 88 -98q31 -30 81 -51q45 -19 70 -19h59q228 0 228 179q0 26 25 26t23 -26q-2 -71 35 -119q34 -45 85 -52q236 230 346 304q131 89 260 89q92 0 149.5 -55.5t57.5 -147.5q0 -86 -91 -205q37 7 82 7h108q17 0 17 -35v-78
q0 -36 -17 -36h-24q-124 0 -232 21q-88 16 -133 16q-8 0 -115 -18.5t-212 -18.5q-172 0 -236.5 23t-101.5 96q-87 -116 -270 -119h-34q-4 0 -7 1z" />
    <glyph glyph-name="uniFEF5" unicode="&#xfedf;&#xfe82;" horiz-adv-x="1037" arabic-form="isolated" 
d="M989 1022q0 -7 -7 -7q-20 0 -54 13q-26 -478 -179 -683q60 -124 60 -167q0 -30 -22 -85q-28 -71 -68 -88q-34 -13 -206 -24q-133 -9 -180 -9q44 129 61 153q100 40 264 203q-135 175 -454 519q-4 -46 -16 -46q-11 0 -75 71q-67 76 -67 106q0 60 41 162q246 -247 431 -469
q153 -184 192 -260q104 180 104 526q0 99 -9 215l102 94q13 -56 82 -224zM745 168q0 36 -48 99q-106 -98 -170 -140v-4l56 -2q34 -1 89 10q73 14 73 37zM388 1345q-91 -73 -224 -73q-20 0 -58.5 6t-59.5 6q-15 0 -37 -30t-34 -31q-16 0 -16 26q0 23 23 66q23 62 44 62
q28 0 81 -9t80 -9q119 0 178 14q27 11 43 11q7 0 8 -5q0 -6 -28 -34z" />
    <glyph glyph-name="uniFEF6" unicode="&#xfee0;&#xfe82;" horiz-adv-x="1221" arabic-form="final" 
d="M1244 36q0 -36 -16 -36h-49q-253 0 -253 280q0 138 -4 205h-4q-186 -404 -345 -528q-43 -33 -76 -37q-256 -34 -314 -34q-35 0 -35 7t176 96q251 125 361 235q-24 297 -431 599q0 -47 -10 -47q-14 0 -80 59q-75 67 -75 114q0 80 18 155l83 -63q246 -186 366 -340
q146 -192 176 -421q189 217 174 496l-18 367l105 103l22 -903q3 -115 53 -158q41 -36 135 -36h25q16 0 16 -35v-78zM419 1308q-91 -73 -224 -73q-20 0 -58.5 6t-59.5 6q-15 0 -37 -29.5t-34 -31.5q-16 0 -16 27q0 22 23 65q23 62 44 62q28 0 81 -8.5t80 -8.5q119 0 178 13
q27 11 43 11q7 0 8 -4q0 -7 -28 -35z" />
    <glyph glyph-name="uniFEF7" unicode="&#xfedf;&#xfe84;" horiz-adv-x="1093" arabic-form="isolated" 
d="M359 1407l-27 -84l-143 -50q-138 -49 -143 -105q-19 19 -19 46q0 56 54 89q-61 34 -61 85q0 58 48 116t121 58q81 0 81 -52q0 -44 -47 -68q-22 43 -65 43q-68 0 -68 -46q0 -25 30 -51q33 -30 69 -30q31 0 96 22q37 14 74 27zM1044 1022q0 -7 -7 -7q-20 0 -55 13
q-26 -478 -179 -683q60 -124 60 -167q0 -30 -22 -85q-28 -71 -68 -88q-34 -13 -206 -24q-132 -9 -180 -9q45 129 62 153q99 40 262 203q-134 175 -452 519q-4 -46 -18 -46q-11 0 -73 71q-68 76 -68 106q0 60 41 162q247 -247 432 -469q152 -184 191 -260q103 180 103 526
q0 99 -8 215l103 94q12 -56 82 -224zM800 168q0 36 -49 99q-106 -98 -170 -140v-4l56 -2q33 -1 90 10q73 14 73 37z" />
    <glyph glyph-name="uniFEF8" unicode="&#xfee0;&#xfe84;" horiz-adv-x="1259" arabic-form="final" 
d="M388 1385l-28 -84l-142 -51q-138 -49 -144 -104q-19 18 -19 47q0 54 55 87q-62 36 -62 86q0 57 46 114q50 60 124 60q81 0 81 -53q0 -44 -48 -67q-21 43 -65 43q-67 0 -67 -46q0 -25 31 -53t68 -28q31 0 96 22q36 13 74 27zM1282 36q0 -36 -17 -36h-49q-253 0 -253 280
q0 138 -4 205h-4q-185 -404 -345 -528q-43 -33 -76 -37q-256 -34 -314 -34q-35 0 -35 7t176 96q251 125 361 235q-24 297 -432 599q0 -47 -9 -47q-14 0 -80 59q-75 67 -75 114q0 80 18 155l83 -63q246 -186 366 -340q146 -192 176 -421q189 217 175 496l-19 367l104 103
l23 -903q3 -115 53 -158q41 -36 136 -36h24q17 0 17 -35v-78z" />
    <glyph glyph-name="uniFEF9" unicode="&#xfedf;&#xfe88;" horiz-adv-x="1037" arabic-form="isolated" 
d="M988 1022q0 -7 -7 -7q-21 0 -54 13q-27 -478 -180 -683q60 -124 60 -167q0 -30 -21 -85q-29 -71 -69 -88q-33 -13 -206 -24q-133 -9 -179 -9q44 129 61 153q99 40 263 203q-135 175 -453 519q-4 -46 -17 -46q-11 0 -75 71q-67 76 -67 106q0 60 41 162q247 -247 432 -469
q152 -184 191 -260q104 180 104 526q0 99 -8 215l102 94q13 -56 82 -224zM479 -281l-27 -83l-142 -51q-138 -50 -144 -104q-18 18 -18 46q0 55 54 88q-61 35 -61 85q0 58 46 114q49 60 123 60q80 0 80 -53q0 -43 -46 -66q-22 43 -66 43q-66 0 -66 -47q0 -24 29 -52
q33 -29 69 -29q31 0 97 23zM744 168q0 36 -49 99q-105 -98 -169 -140v-4l56 -2q33 -1 89 10q73 14 73 37z" />
    <glyph glyph-name="uniFEFA" unicode="&#xfee0;&#xfe88;" horiz-adv-x="1203" arabic-form="final" 
d="M1226 36q0 -36 -17 -36h-48q-255 0 -255 280q0 138 -3 205h-4q-185 -404 -345 -528q-42 -33 -77 -37q-255 -34 -313 -34q-36 0 -36 7t178 96q250 125 360 235q-24 297 -431 599q0 -47 -9 -47q-16 0 -80 59q-75 67 -75 114q0 80 16 155l84 -63q247 -186 366 -340
q147 -192 175 -421q190 217 176 496l-19 367l105 103l23 -903q2 -115 52 -158q41 -36 135 -36h25q17 0 17 -35v-78zM565 -351l-28 -84l-143 -50q-137 -49 -143 -104q-19 19 -19 47q0 55 55 87q-62 35 -62 86q0 57 48 115t121 58q81 0 81 -52q0 -44 -47 -67q-21 43 -65 43
q-67 0 -67 -47q0 -24 30 -51q32 -29 68 -29q31 0 97 23q36 12 74 25z" />
    <glyph glyph-name="uniFEFB" unicode="&#xfedf;&#xfe8e;" horiz-adv-x="1037" arabic-form="isolated" 
d="M988 1022q0 -7 -7 -7q-21 0 -54 13q-27 -478 -180 -683q60 -124 60 -167q0 -30 -21 -85q-29 -71 -69 -88q-33 -13 -206 -24q-133 -9 -179 -9q44 129 61 153q99 40 263 203q-135 175 -453 519q-4 -46 -17 -46q-11 0 -75 71q-67 76 -67 106q0 60 41 162q247 -247 432 -469
q152 -184 191 -260q104 180 104 526q0 99 -8 215l102 94q13 -56 82 -224zM744 168q0 36 -49 99q-105 -98 -169 -140v-4l56 -2q33 -1 89 10q73 14 73 37z" />
    <glyph glyph-name="uniFEFC" unicode="&#xfee0;&#xfe8e;" horiz-adv-x="1203" arabic-form="final" 
d="M1226 36q0 -36 -17 -36h-48q-255 0 -255 280q0 138 -3 205h-4q-185 -404 -345 -528q-42 -33 -77 -37q-255 -34 -313 -34q-36 0 -36 7t178 96q250 125 360 235q-24 297 -431 599q0 -47 -9 -47q-16 0 -80 59q-75 67 -75 114q0 80 16 155l84 -63q247 -186 366 -340
q147 -192 175 -421q190 217 176 496l-19 367l105 103l23 -903q2 -115 52 -158q41 -36 135 -36h25q17 0 17 -35v-78z" />
    <glyph glyph-name="uniFE8B_uniFEE4.liga" unicode="&#xfe8b;&#xfee4;" horiz-adv-x="1383" 
d="M1358 879l-33 -95q-38 -4 -114 -24q-149 -39 -196 -104q-9 18 -9 41q0 56 70 95q-50 33 -50 95q0 59 59.5 117t127.5 58q94 0 94 -82q0 -16 -12 -30q-35 32 -97 32q-108 0 -108 -54q0 -32 33.5 -60t64.5 -28q86 0 170 39zM622 121q0 70 -45 136q-49 71 -115 71
q-37 0 -91 -48q-51 -45 -49 -63q0 -13 115 -72t144 -59q41 0 41 35zM909 0q-107 0 -223 125q0 -48 -36 -105q-39 -61 -80 -61q-102 0 -315 155q-62 -60 -104 -83q-57 -31 -132 -31h-23q-36 0 -36 36v78q0 35 36 35h23q147 0 199 68q184 239 272 239q100 0 177 -132
q103 -175 242 -175h30q285 0 285 70q0 73 -86 178l68 151q96 -135 96 -276q0 -154 -87 -216q-78 -56 -258 -56h-48z" />
    <glyph glyph-name="uniFE8B_uniFEF0.liga" unicode="&#xfe8b;&#xfef0;" horiz-adv-x="1781" 
d="M1757 879l-33 -95q-38 -4 -114 -24q-149 -39 -196 -104q-9 18 -9 41q0 56 70 95q-50 33 -50 95q0 59 59.5 117t127.5 58q94 0 94 -82q0 -16 -12 -30q-35 32 -97 32q-108 0 -108 -54q0 -32 33.5 -60t64.5 -28q86 0 170 39zM1229 0q-431 0 -431 -82q0 -32 186 -56
q138 -18 175 -41q32 -21 31 -82q-9 -336 -664 -336q-182 0 -294 76q-130 87 -130 260q0 128 52 245q46 103 84 103q23 0 23 -20q0 2 -35 -76.5t-35 -161.5q0 -155 117 -220q102 -57 320 -57q202 0 350 45q134 42 133 90q0 20 -105 35q-145 22 -194 38q-104 34 -104 98
q0 84 82 168q79 83 174 102q95 20 349 21h25q285 0 285 70q0 73 -86 178l68 151q96 -135 96 -276q0 -154 -87 -216q-78 -56 -258 -56h-127z" />
    <glyph glyph-name="uniFE8B_uniFEF2.liga" unicode="&#xfe8b;&#xfef2;" horiz-adv-x="1781" 
d="M761 -864l-101 -104l-103 104l101 101zM517 -864l-100 -104l-103 104l101 101zM1757 879l-33 -95q-38 -4 -114 -24q-149 -39 -196 -104q-9 18 -9 41q0 56 70 95q-50 33 -50 95q0 59 59.5 117t127.5 58q94 0 94 -82q0 -16 -12 -30q-35 32 -97 32q-108 0 -108 -54
q0 -32 33.5 -60t64.5 -28q86 0 170 39zM1229 0q-431 0 -431 -82q0 -32 186 -56q138 -18 175 -41q32 -21 31 -82q-9 -336 -664 -336q-182 0 -294 76q-130 87 -130 260q0 128 52 245q46 103 84 103q23 0 23 -20q0 2 -35 -76.5t-35 -161.5q0 -155 117 -220q102 -57 320 -57
q202 0 350 45q134 42 133 90q0 20 -105 35q-145 22 -194 38q-104 34 -104 98q0 84 82 168q79 83 174 102q95 20 349 21h25q285 0 285 70q0 73 -86 178l68 151q96 -135 96 -276q0 -154 -87 -216q-78 -56 -258 -56h-127z" />
    <glyph glyph-name="uniFE91_uniFEE4.liga" unicode="&#xfe91;&#xfee4;" horiz-adv-x="1408" 
d="M1198 -263l-101 -104l-102 104l100 101zM622 121q0 70 -45 136q-49 71 -115 71q-37 0 -91 -48q-51 -45 -49 -63q0 -13 115 -72t144 -59q41 0 41 35zM883 2q-95 13 -197 123q0 -48 -36 -105q-39 -61 -80 -61q-102 0 -315 155q-62 -60 -104 -83q-57 -31 -132 -31h-23
q-36 0 -36 36v78q0 35 36 35h23q147 0 199 68q184 239 272 239q100 0 177 -132q103 -175 242 -175h12q284 0 284 70q0 73 -85 178l68 151q96 -135 96 -276q0 -154 -87 -216q-78 -56 -259 -56h-41q-8 0 -14 2z" />
    <glyph glyph-name="uniFE92_uniFEE6.liga" unicode="&#xfe92;&#xfee6;" horiz-adv-x="1845" 
d="M690 584l-103 -107l-105 107l105 107zM1205 1q-71 3 -127 20q14 -54 14 -137q0 -219 -201 -329q-163 -89 -415 -89q-144 0 -247 75q-127 91 -127 261q0 129 52 244q46 105 84 105q23 0 23 -21q0 3 -35 -76t-35 -162q0 -266 351 -266q159 0 298 50q189 66 189 192
q0 115 -147 321l76 144q56 -103 106 -143.5t122 -40.5h168q167 0 190 204q0 26 25 26q24 0 24 -26q23 -204 190 -204h64q17 0 17 -35v-78q0 -36 -17 -36h-24q-104 0 -157 24q-63 28 -95 104q-37 -74 -123 -103q-66 -22 -184 -25h-50q-5 0 -9 1zM1645 -263l-101 -104
l-102 104l100 101z" />
    <glyph glyph-name="uniFE91_uniFEF0.liga" unicode="&#xfe91;&#xfef0;" horiz-adv-x="1761" 
d="M1229 0q-431 0 -431 -82q0 -32 186 -56q138 -18 175 -41q32 -21 31 -82q-9 -336 -664 -336q-182 0 -294 76q-130 87 -130 260q0 128 52 245q46 103 84 103q23 0 23 -20q0 2 -35 -76.5t-35 -161.5q0 -155 117 -220q102 -57 320 -57q202 0 350 45q134 42 133 90
q0 20 -105 35q-145 22 -194 38q-104 34 -104 98q0 84 82 168q79 83 174 102q94 20 339 21h26q284 0 284 70q0 73 -85 178l68 151q96 -135 96 -276q0 -154 -87 -216q-76 -55 -250 -56h-126zM1647 -261l-103 -106l-105 106l105 106z" />
    <glyph glyph-name="uniFE91_uniFEF2.liga" unicode="&#xfe91;&#xfef2;" horiz-adv-x="1761" 
d="M761 -864l-101 -104l-103 104l101 101zM517 -864l-100 -104l-103 104l101 101zM1229 0q-431 0 -431 -82q0 -32 186 -56q138 -18 175 -41q32 -21 31 -82q-9 -336 -664 -336q-182 0 -294 76q-130 87 -130 260q0 128 52 245q46 103 84 103q23 0 23 -20q0 2 -35 -76.5
t-35 -161.5q0 -155 117 -220q102 -57 320 -57q202 0 350 45q134 42 133 90q0 20 -105 35q-145 22 -194 38q-104 34 -104 98q0 84 82 168q79 83 174 102q94 20 339 21h26q284 0 284 70q0 73 -85 178l68 151q96 -135 96 -276q0 -154 -87 -216q-76 -55 -250 -56h-126z
M1647 -261l-103 -106l-105 106l105 106z" />
    <glyph glyph-name="uniFE97_uniFEE4.liga" unicode="&#xfe97;&#xfee4;" horiz-adv-x="1427" 
d="M1395 819l-102 -107l-105 107l105 107zM1153 819l-103 -107l-104 107l104 107zM622 121q0 70 -45 136q-49 71 -115 71q-37 0 -91 -48q-51 -45 -49 -63q0 -13 115 -72t144 -59q41 0 41 35zM909 0q-107 0 -223 125q0 -48 -36 -105q-39 -61 -80 -61q-102 0 -315 155
q-62 -60 -104 -83q-57 -31 -132 -31h-23q-36 0 -36 36v78q0 35 36 35h23q147 0 199 68q184 239 272 239q100 0 177 -132q103 -175 242 -175h30q285 0 285 70q0 73 -86 178l68 151q96 -135 96 -276q0 -154 -87 -216q-78 -56 -258 -56h-48z" />
    <glyph glyph-name="uniFE98_uniFEE6.liga" unicode="&#xfe98;&#xfee6;" horiz-adv-x="1845" 
d="M690 584l-103 -107l-105 107l105 107zM1205 1q-71 3 -127 20q14 -54 14 -137q0 -219 -201 -329q-163 -89 -415 -89q-144 0 -247 75q-127 91 -127 261q0 129 52 244q46 105 84 105q23 0 23 -21q0 3 -35 -76t-35 -162q0 -266 351 -266q159 0 298 50q189 66 189 192
q0 115 -147 321l76 144q56 -103 106 -143.5t122 -40.5h168q167 0 190 204q0 26 25 26q24 0 24 -26q23 -204 190 -204h64q17 0 17 -35v-78q0 -36 -17 -36h-24q-104 0 -157 24q-63 28 -95 104q-37 -74 -123 -103q-66 -22 -184 -25h-50q-5 0 -9 1zM1464 681l-102 -106l-105 106
l105 106zM1707 681l-103 -106l-104 106l104 106z" />
    <glyph glyph-name="uniFE97_uniFEF0.liga" unicode="&#xfe97;&#xfef0;" horiz-adv-x="1830" 
d="M1794 819l-102 -107l-105 107l105 107zM1551 819l-102 -107l-104 107l104 107zM1229 0q-431 0 -431 -82q0 -32 186 -56q138 -18 175 -41q32 -21 31 -82q-9 -336 -664 -336q-182 0 -294 76q-130 87 -130 260q0 128 52 245q46 103 84 103q23 0 23 -20q0 2 -35 -76.5
t-35 -161.5q0 -155 117 -220q102 -57 320 -57q202 0 350 45q134 42 133 90q0 20 -105 35q-145 22 -194 38q-104 34 -104 98q0 84 82 168q79 83 174 102q95 20 349 21h25q285 0 285 70q0 73 -86 178l68 151q96 -135 96 -276q0 -154 -87 -216q-78 -56 -258 -56h-127z" />
    <glyph glyph-name="uniFE97_uniFEF2.liga" unicode="&#xfe97;&#xfef2;" horiz-adv-x="1830" 
d="M761 -864l-101 -104l-103 104l101 101zM517 -864l-100 -104l-103 104l101 101zM1794 819l-102 -107l-105 107l105 107zM1551 819l-102 -107l-104 107l104 107zM1229 0q-431 0 -431 -82q0 -32 186 -56q138 -18 175 -41q32 -21 31 -82q-9 -336 -664 -336q-182 0 -294 76
q-130 87 -130 260q0 128 52 245q46 103 84 103q23 0 23 -20q0 2 -35 -76.5t-35 -161.5q0 -155 117 -220q102 -57 320 -57q202 0 350 45q134 42 133 90q0 20 -105 35q-145 22 -194 38q-104 34 -104 98q0 84 82 168q79 83 174 102q95 20 349 21h25q285 0 285 70q0 73 -86 178
l68 151q96 -135 96 -276q0 -154 -87 -216q-78 -56 -258 -56h-127z" />
    <glyph glyph-name="uniFE9C_uniFEAE.liga" unicode="&#xfe9c;&#xfeae;" horiz-adv-x="1335" 
d="M1076 897l-104 -106l-103 106l105 107zM698 1q-54 3 -116 29q7 -35 6 -86q-5 -149 -113 -312q-103 -154 -176 -154q-299 0 -299 25q0 11 62 27q135 34 283 162q172 149 172 271q0 99 -129 213l69 141q43 -56 88 -98q31 -30 81 -51q45 -19 70 -19h149q167 0 190 204
q0 26 25 26q24 0 24 -26q23 -204 190 -204h63q18 0 18 -35v-78q0 -36 -18 -36h-23q-104 0 -157 24q-63 28 -96 104q-36 -74 -123 -103q-70 -24 -200 -25h-33q-4 0 -7 1zM955 681l-102 -106l-105 106l105 106zM1198 681l-103 -106l-105 106l105 106z" />
    <glyph glyph-name="uniFE9B_uniFEE4.liga" unicode="&#xfe9b;&#xfee4;" horiz-adv-x="1427" 
d="M1274 1036l-105 -107l-102 107l104 106zM1395 819l-102 -107l-105 107l105 107zM1153 819l-103 -107l-104 107l104 107zM622 121q0 70 -45 136q-49 71 -115 71q-37 0 -91 -48q-51 -45 -49 -63q0 -13 115 -72t144 -59q41 0 41 35zM909 0q-107 0 -223 125q0 -48 -36 -105
q-39 -61 -80 -61q-102 0 -315 155q-62 -60 -104 -83q-57 -31 -132 -31h-23q-36 0 -36 36v78q0 35 36 35h23q147 0 199 68q184 239 272 239q100 0 177 -132q103 -175 242 -175h30q285 0 285 70q0 73 -86 178l68 151q96 -135 96 -276q0 -154 -87 -216q-78 -56 -258 -56h-48z
" />
    <glyph glyph-name="uniFE9C_uniFEE6.liga" unicode="&#xfe9c;&#xfee6;" horiz-adv-x="1845" 
d="M690 584l-103 -107l-105 107l105 107zM1205 1q-71 3 -127 20q14 -54 14 -137q0 -219 -201 -329q-163 -89 -415 -89q-144 0 -247 75q-127 91 -127 261q0 129 52 244q46 105 84 105q23 0 23 -21q0 3 -35 -76t-35 -162q0 -266 351 -266q159 0 298 50q189 66 189 192
q0 115 -147 321l76 144q56 -103 106 -143.5t122 -40.5h168q167 0 190 204q0 26 25 26q24 0 24 -26q23 -204 190 -204h64q17 0 17 -35v-78q0 -36 -17 -36h-24q-104 0 -157 24q-63 28 -95 104q-37 -74 -123 -103q-66 -22 -184 -25h-50q-5 0 -9 1zM1464 681l-102 -106l-105 106
l105 106zM1707 681l-103 -106l-104 106l104 106zM1585 897l-104 -106l-103 106l105 107z" />
    <glyph glyph-name="uniFE9B_uniFEF0.liga" unicode="&#xfe9b;&#xfef0;" horiz-adv-x="1830" 
d="M1673 1036l-105 -107l-102 107l104 106zM1794 819l-102 -107l-105 107l105 107zM1551 819l-102 -107l-104 107l104 107zM1229 0q-431 0 -431 -82q0 -32 186 -56q138 -18 175 -41q32 -21 31 -82q-9 -336 -664 -336q-182 0 -294 76q-130 87 -130 260q0 128 52 245
q46 103 84 103q23 0 23 -20q0 2 -35 -76.5t-35 -161.5q0 -155 117 -220q102 -57 320 -57q202 0 350 45q134 42 133 90q0 20 -105 35q-145 22 -194 38q-104 34 -104 98q0 84 82 168q79 83 174 102q95 20 349 21h25q285 0 285 70q0 73 -86 178l68 151q96 -135 96 -276
q0 -154 -87 -216q-78 -56 -258 -56h-127z" />
    <glyph glyph-name="uniFE9B_uniFEF2.liga" unicode="&#xfe9b;&#xfef2;" horiz-adv-x="1830" 
d="M761 -864l-101 -104l-103 104l101 101zM517 -864l-100 -104l-103 104l101 101zM1673 1036l-105 -107l-102 107l104 106zM1794 819l-102 -107l-105 107l105 107zM1551 819l-102 -107l-104 107l104 107zM1229 0q-431 0 -431 -82q0 -32 186 -56q138 -18 175 -41
q32 -21 31 -82q-9 -336 -664 -336q-182 0 -294 76q-130 87 -130 260q0 128 52 245q46 103 84 103q23 0 23 -20q0 2 -35 -76.5t-35 -161.5q0 -155 117 -220q102 -57 320 -57q202 0 350 45q134 42 133 90q0 20 -105 35q-145 22 -194 38q-104 34 -104 98q0 84 82 168
q79 83 174 102q95 20 349 21h25q285 0 285 70q0 73 -86 178l68 151q96 -135 96 -276q0 -154 -87 -216q-78 -56 -258 -56h-127z" />
    <glyph glyph-name="uniFEDB_uniFEF0.liga" unicode="&#xfedb;&#xfef0;" horiz-adv-x="2201" 
d="M1229 0q-431 0 -431 -82q0 -32 186 -56q138 -18 175 -41q32 -21 31 -82q-9 -336 -664 -336q-182 0 -294 76q-130 87 -130 260q0 128 52 245q46 103 84 103q23 0 23 -20q0 2 -35 -76.5t-35 -161.5q0 -155 117 -220q102 -57 320 -57q202 0 350 45q134 42 133 90
q0 20 -105 35q-145 22 -194 38q-104 34 -104 98q0 84 82 168q79 83 174 102q94 20 341 21h24q201 0 302.5 35.5t101.5 116.5q0 35 -23.5 82t-58 94.5t-75.5 89.5t-76 67l-10 -29q-17 15 -39 37.5t-41 46.5t-32 48t-13 41q0 47 6.5 83.5t18 62t25.5 40.5t28 21l702 261
l-47 -149l-645 -235q6 -13 33 -38.5t65.5 -63t81 -85.5t79 -106.5t60.5 -126t24 -141.5q0 -70 -16 -116.5t-47 -79.5q-31 -35 -72 -55.5t-91 -31.5t-109 -14q-51 -3 -106 -4h-126z" />
    <glyph glyph-name="uniFEDC_uniFEF0.liga" unicode="&#xfedc;&#xfef0;" horiz-adv-x="2234" 
d="M1229 0q-431 0 -431 -82q0 -32 186 -56q138 -18 175 -41q32 -21 31 -82q-9 -336 -664 -336q-182 0 -294 76q-130 87 -130 260q0 128 52 245q46 103 84 103q23 0 23 -20q0 2 -35 -76.5t-35 -161.5q0 -155 117 -220q102 -57 320 -57q202 0 350 45q134 42 133 90
q0 20 -105 35q-145 22 -194 38q-104 34 -104 98q0 84 82 168q79 83 174 102q94 20 341 21h24q71 0 144 5t131.5 20t95 45.5t36.5 81.5q0 41 -27 88.5t-68 97.5t-89.5 98t-89.5 88t-68 70t-27 42q0 16 1.5 45.5t8.5 60t20 56.5t35 34l717 265l-47 -149l-645 -235
q4 -5 10.5 -12.5t24 -28.5t51 -59.5t92 -104t145.5 -162.5t212 -235q20 -23 43 -43t51 -35t64 -24t81 -9h15q10 0 13 -8.5t3 -26.5v-78q0 -18 -3 -27t-13 -9h-25q-62 0 -108.5 14.5t-92.5 49t-97.5 92.5t-122.5 145q-2 -90 -32 -147.5t-88.5 -92t-146.5 -47.5
q-78 -12 -177 -14h-127z" />
    <glyph glyph-name="uniFEDB_uniFEF2.liga" unicode="&#xfedb;&#xfef2;" horiz-adv-x="2201" 
d="M761 -864l-101 -104l-103 104l101 101zM517 -864l-100 -104l-103 104l101 101zM1229 0q-431 0 -431 -82q0 -32 186 -56q138 -18 175 -41q32 -21 31 -82q-9 -336 -664 -336q-182 0 -294 76q-130 87 -130 260q0 128 52 245q46 103 84 103q23 0 23 -20q0 2 -35 -76.5
t-35 -161.5q0 -155 117 -220q102 -57 320 -57q202 0 350 45q134 42 133 90q0 20 -105 35q-145 22 -194 38q-104 34 -104 98q0 84 82 168q79 83 174 102q94 20 341 21h24q201 0 302.5 35.5t101.5 116.5q0 35 -23.5 82t-58 94.5t-75.5 89.5t-76 67l-10 -29q-17 15 -39 37.5
t-41 46.5t-32 48t-13 41q0 47 6.5 83.5t18 62t25.5 40.5t28 21l702 261l-47 -149l-645 -235q6 -13 33 -38.5t65.5 -63t81 -85.5t79 -106.5t60.5 -126t24 -141.5q0 -70 -16 -116.5t-47 -79.5q-31 -35 -72 -55.5t-91 -31.5t-109 -14q-51 -3 -106 -4h-126z" />
    <glyph glyph-name="uniFEDC_uniFEF2.liga" unicode="&#xfedc;&#xfef2;" horiz-adv-x="2234" 
d="M761 -864l-101 -104l-103 104l101 101zM517 -864l-100 -104l-103 104l101 101zM1229 0q-431 0 -431 -82q0 -32 186 -56q138 -18 175 -41q32 -21 31 -82q-9 -336 -664 -336q-182 0 -294 76q-130 87 -130 260q0 128 52 245q46 103 84 103q23 0 23 -20q0 2 -35 -76.5
t-35 -161.5q0 -155 117 -220q102 -57 320 -57q202 0 350 45q134 42 133 90q0 20 -105 35q-145 22 -194 38q-104 34 -104 98q0 84 82 168q79 83 174 102q94 20 341 21h24q71 0 144 5t131.5 20t95 45.5t36.5 81.5q0 41 -27 88.5t-68 97.5t-89.5 98t-89.5 88t-68 70t-27 42
q0 16 1.5 45.5t8.5 60t20 56.5t35 34l717 265l-47 -149l-645 -235q4 -5 10.5 -12.5t24 -28.5t51 -59.5t92 -104t145.5 -162.5t212 -235q20 -23 43 -43t51 -35t64 -24t81 -9h15q10 0 13 -8.5t3 -26.5v-78q0 -18 -3 -27t-13 -9h-25q-62 0 -108.5 14.5t-92.5 49t-97.5 92.5
t-122.5 145q-2 -90 -32 -147.5t-88.5 -92t-146.5 -47.5q-78 -12 -177 -14h-127z" />
    <glyph glyph-name="uniFEDF_uniFB51.rlig" unicode="&#xfedf;&#xfb51;" horiz-adv-x="1037" 
d="M989 1022q0 -7 -7 -7q-20 0 -54 13q-26 -478 -179 -683q60 -124 60 -167q0 -30 -22 -85q-28 -71 -68 -88q-34 -13 -206 -24q-133 -9 -180 -9q44 129 61 153q100 40 264 203q-135 175 -454 519q-4 -46 -17 -46q-10 0 -74 71q-68 76 -68 106q0 60 41 162q247 -247 432 -469
q152 -184 192 -260q103 180 103 526q0 99 -8 215l102 94q13 -56 82 -224zM745 168q0 36 -48 99q-106 -98 -170 -140v-4l56 -2q34 -1 89 10q73 14 73 37zM425 1429q0 -68 -48 -126q-56 -66 -139 -66q-25 0 -74 10t-69 10q-24 0 -49 -18.5t-31 -42.5q-17 8 -17 30
q0 44 29.5 86.5t66.5 40.5l35 -2q130 164 211 164q85 0 85 -86zM373 1383q0 17 -22.5 34.5t-44.5 17.5q-31 0 -71.5 -29t-62.5 -62q34 -16 87 -16q49 0 81.5 17.5t32.5 37.5z" />
    <glyph glyph-name="uniFEE0_uniFB51.rlig" unicode="&#xfee0;&#xfb51;" horiz-adv-x="1203" 
d="M1227 36q0 -36 -17 -36h-49q-254 0 -254 280q0 138 -3 205h-4q-185 -404 -345 -528q-42 -33 -77 -37q-255 -34 -313 -34q-36 0 -36 7t178 96q249 125 360 235q-24 297 -431 599q0 -47 -9 -47q-16 0 -81 59q-74 67 -74 114q0 80 16 155l84 -63q247 -186 365 -340
q148 -192 176 -421q190 217 176 496l-19 367l105 103l22 -903q3 -115 53 -158q41 -36 135 -36h25q17 0 17 -35v-78zM425 1393q0 -68 -48 -127q-56 -65 -139 -65q-25 0 -74 10t-69 10q-24 0 -49 -19t-31 -42q-17 8 -17 30q0 44 29.5 86t66.5 40l35 -1q130 164 211 164
q85 0 85 -86zM373 1347q0 17 -22.5 34t-44.5 17q-31 0 -71.5 -28.5t-62.5 -62.5q34 -15 87 -15q49 0 81.5 17t32.5 38z" />
    <glyph glyph-name="uniFEDF_uniFEE2.liga" unicode="&#xfedf;&#xfee2;" horiz-adv-x="1427" 
d="M738 7q0 83 -239 253v-96q0 -80 33 -149q41 -86 113 -86q93 0 93 78zM914 4q-59 10 -119 48q7 -30 7 -63q0 -220 -153 -220q-119 0 -185 149q-56 125 -47 253h-44q-53 0 -103 -13q-60 -18 -71 -46q0 -60 19 -256q18 -190 18 -248q0 -48 -18 -123q-20 -82 -39 -82
q-20 0 -25 155q-2 46 -27 242q-25 192 -25 225q0 99 60 186q76 110 209 110h74l33 124q171 -176 335 -260q69 -36 140 -36h3q123 0 170 25q43 23 43 77q0 61 -11 223l-45 651q-1 11 22 34l91 87l60 -173q17 -49 17 -60q0 -14 -63 9l11 -349v-326q0 -200 -79 -280
q-60 -62 -192 -66q-2 -1 -3 -1h-45q-11 0 -18 4z" />
    <glyph glyph-name="uniFEE4_uniFE8E.liga" unicode="&#xfee4;&#xfe8e;" horiz-adv-x="1383" 
d="M1077 121q0 70 -46 136q-49 71 -115 71q-37 0 -91 -48q-51 -45 -49 -63q0 -13 115 -72t145 -59q41 0 41 35zM443 0q-111 5 -180 61q-79 65 -80 183q-6 493 -43 899l108 103q23 -273 26 -966q0 -66 65 -103q48 -28 95 -28h39q147 0 199 68q184 239 272 239q101 0 177 -132
q103 -175 243 -175h24q17 0 17 -35v-78q0 -36 -17 -36h-24q-108 0 -224 125q0 -48 -36 -105q-38 -61 -79 -61q-102 0 -316 155q-62 -60 -103 -83q-48 -26 -108 -30q-2 -1 -5 -1h-50z" />
    <glyph glyph-name="uniFEE4_uniFE82.liga" unicode="&#xfee4;&#xfe82;" horiz-adv-x="1377" 
d="M1069 121q0 70 -46 136q-49 71 -115 71q-37 0 -91 -48q-51 -45 -49 -63q0 -13 115 -72t145 -59q41 0 41 35zM388 1427q-91 -73 -224 -73q-20 0 -58.5 6t-59.5 6q-15 0 -37 -30t-34 -31q-16 0 -16 26q0 23 23 66q23 62 44 62q28 0 81 -9t80 -9q119 0 178 14q27 11 43 11
q7 0 8 -5q0 -6 -28 -34zM431 1q-102 7 -167 60q-79 65 -80 183q-5 493 -43 899l108 103q23 -273 26 -966q0 -66 65 -103q48 -28 95 -28h31q146 0 198 68q184 239 273 239q100 0 176 -132q103 -175 243 -175h24q17 0 17 -35v-78q0 -36 -17 -36h-24q-108 0 -224 125
q0 -48 -36 -105q-38 -61 -79 -61q-102 0 -316 155q-61 -60 -103 -83q-44 -24 -98 -29q-3 -2 -6 -2h-52q-7 0 -11 1z" />
    <glyph glyph-name="uniFEE4_uniFE84.liga" unicode="&#xfee4;&#xfe84;" horiz-adv-x="1376" 
d="M370 1461l-28 -84l-143 -51q-137 -49 -143 -104q-19 19 -19 47q0 55 54 88q-61 35 -61 85q0 58 46 114q50 60 123 60q81 0 81 -53q0 -43 -47 -67q-22 44 -65 44q-67 0 -67 -48q0 -24 29 -51q33 -29 69 -29q31 0 97 23q36 13 74 26zM1068 121q0 70 -46 136q-49 71 -115 71
q-37 0 -91 -48q-51 -45 -49 -63q0 -13 115.5 -72t144.5 -59q41 0 41 35zM430 1q-102 7 -167 60q-79 65 -80 183q-5 506 -43 874l108 102q23 -250 26 -940q0 -66 65 -103q48 -28 95 -28h31q146 0 198 68q184 239 273 239q100 0 176 -132q103 -175 243 -175h24q17 0 17 -35
v-78q0 -36 -17 -36h-24q-108 0 -224 125q0 -48 -36 -105q-38 -61 -79 -61q-102 0 -315 155q-62 -60 -104 -83q-44 -24 -98 -29q-3 -2 -6 -2h-52q-7 0 -11 1z" />
    <glyph glyph-name="uniFEE4_uniFE88.liga" unicode="&#xfee4;&#xfe88;" horiz-adv-x="1392" 
d="M500 -233l-28 -84l-143 -50q-137 -49 -143 -105q-19 18 -19 47q0 55 55 87q-62 36 -62 87q0 56 47 113q49 60 122 60q82 0 82 -52q0 -44 -48 -68q-21 43 -64 43q-68 0 -68 -46q0 -25 31 -53t67 -28q31 0 97 22q37 14 74 27zM1086 121q0 70 -46 136q-49 71 -115 71
q-37 0 -91 -48q-51 -45 -49 -63q0 -13 115.5 -72t144.5 -59q41 0 41 35zM458 0q-121 1 -195 61q-79 65 -80 183q-6 493 -43 899l108 103q23 -273 26 -966q0 -66 65 -103q48 -28 95 -28h49q146 0 198 68q184 239 273 239q100 0 176 -132q103 -175 243 -175h24q17 0 17 -35
v-78q0 -36 -17 -36h-24q-108 0 -224 125q0 -48 -36 -105q-38 -61 -79 -61q-102 0 -315 155q-62 -60 -104 -83q-53 -28 -120 -31h-37z" />
    <glyph glyph-name="uniFEE8_uniFEAE.liga" unicode="&#xfee8;&#xfeae;" horiz-adv-x="1332" 
d="M1115 804l-102 -106l-105 106l105 106zM698 1q-54 3 -116 29q7 -35 6 -86q-5 -149 -113 -312q-103 -154 -176 -154q-299 0 -299 25q0 11 62 27q135 34 283 162q172 149 172 271q0 99 -129 213l69 141q43 -56 88 -98q31 -30 81 -51q45 -19 70 -19h149q167 0 190 204
q0 26 25 26q24 0 24 -26q23 -204 190 -204h63q18 0 18 -35v-78q0 -36 -18 -36h-23q-104 0 -157 24q-63 28 -96 104q-36 -74 -123 -103q-70 -24 -200 -25h-33q-4 0 -7 1z" />
    <glyph glyph-name="uniFEE7_uniFEE4.liga" unicode="&#xfee7;&#xfee4;" horiz-adv-x="1367" 
d="M1274 897l-102 -106l-105 106l105 107zM622 121q0 70 -45 136q-49 71 -115 71q-37 0 -91 -48q-51 -45 -49 -63q0 -13 115 -72t144 -59q41 0 41 35zM902 0q-104 4 -216 125q0 -48 -36 -105q-39 -61 -80 -61q-102 0 -315 155q-62 -60 -104 -83q-57 -31 -132 -31h-23
q-36 0 -36 36v78q0 35 36 35h23q147 0 199 68q184 239 272 239q100 0 177 -132q103 -175 242 -175h21q284 0 284 70q0 73 -85 178l68 151q96 -135 96 -276q0 -154 -87 -216q-78 -56 -258 -56h-46z" />
    <glyph glyph-name="uniFEE7_uniFEF0.liga" unicode="&#xfee7;&#xfef0;" horiz-adv-x="1793" 
d="M1682 897l-102 -106l-105 106l105 107zM1229 0q-431 0 -431 -82q0 -32 186 -56q138 -18 175 -41q32 -21 31 -82q-9 -336 -664 -336q-182 0 -294 76q-130 87 -130 260q0 128 52 245q46 103 84 103q23 0 23 -20q0 2 -35 -76.5t-35 -161.5q0 -155 117 -220q102 -57 320 -57
q202 0 350 45q134 42 133 90q0 20 -105 35q-145 22 -194 38q-104 34 -104 98q0 84 82 168q79 83 174 102q95 20 349 21h25q285 0 285 70q0 73 -86 178l68 151q96 -135 96 -276q0 -154 -87 -216q-78 -56 -258 -56h-127z" />
    <glyph glyph-name="uniFEE7_uniFEF2.liga" unicode="&#xfee7;&#xfef2;" horiz-adv-x="1793" 
d="M761 -864l-101 -104l-103 104l101 101zM517 -864l-100 -104l-103 104l101 101zM1682 897l-102 -106l-105 106l105 107zM1229 0q-431 0 -431 -82q0 -32 186 -56q138 -18 175 -41q32 -21 31 -82q-9 -336 -664 -336q-182 0 -294 76q-130 87 -130 260q0 128 52 245
q46 103 84 103q23 0 23 -20q0 2 -35 -76.5t-35 -161.5q0 -155 117 -220q102 -57 320 -57q202 0 350 45q134 42 133 90q0 20 -105 35q-145 22 -194 38q-104 34 -104 98q0 84 82 168q79 83 174 102q95 20 349 21h25q285 0 285 70q0 73 -86 178l68 151q96 -135 96 -276
q0 -154 -87 -216q-78 -56 -258 -56h-127z" />
    <glyph glyph-name="uniFEF4_uniFEAE.liga" unicode="&#xfef4;&#xfeae;" horiz-adv-x="1332" 
d="M698 1q-54 3 -116 29q7 -35 6 -86q-5 -149 -113 -312q-103 -154 -176 -154q-299 0 -299 25q0 11 62 27q135 34 283 162q172 149 172 271q0 99 -129 213l69 141q43 -56 88 -98q31 -30 81 -51q45 -19 70 -19h149q167 0 190 204q0 26 25 26q24 0 24 -26q23 -204 190 -204h63
q18 0 18 -35v-78q0 -36 -18 -36h-23q-104 0 -157 24q-63 28 -96 104q-36 -74 -123 -103q-70 -24 -200 -25h-33q-4 0 -7 1zM985 -263l-101 -104l-103 104l101 101zM1227 -263l-101 -104l-102 104l100 101z" />
    <glyph glyph-name="uniFEF3_uniFEE4.liga" unicode="&#xfef3;&#xfee4;" horiz-adv-x="1408" 
d="M1377 -263l-101 -104l-103 104l102 101zM1134 -263l-101 -104l-102 104l100 101zM622 121q0 70 -45 136q-49 71 -115 71q-37 0 -91 -48q-51 -45 -49 -63q0 -13 115 -72t144 -59q41 0 41 35zM883 2q-95 13 -197 123q0 -48 -36 -105q-39 -61 -80 -61q-102 0 -315 155
q-62 -60 -104 -83q-57 -31 -132 -31h-23q-36 0 -36 36v78q0 35 36 35h23q147 0 199 68q184 239 272 239q100 0 177 -132q103 -175 242 -175h12q284 0 284 70q0 73 -85 178l68 151q96 -135 96 -276q0 -154 -87 -216q-78 -56 -259 -56h-41q-8 0 -14 2z" />
    <glyph glyph-name="uniFEF4_uniFEE6.liga" unicode="&#xfef4;&#xfee6;" horiz-adv-x="1845" 
d="M690 584l-103 -107l-105 107l105 107zM1205 1q-71 3 -127 20q14 -54 14 -137q0 -219 -201 -329q-163 -89 -415 -89q-144 0 -247 75q-127 91 -127 261q0 129 52 244q46 105 84 105q23 0 23 -21q0 3 -35 -76t-35 -162q0 -266 351 -266q159 0 298 50q189 66 189 192
q0 115 -147 321l76 144q56 -103 106 -143.5t122 -40.5h168q167 0 190 204q0 26 25 26q24 0 24 -26q23 -204 190 -204h64q17 0 17 -35v-78q0 -36 -17 -36h-24q-104 0 -157 24q-63 28 -95 104q-37 -74 -123 -103q-66 -22 -184 -25h-50q-5 0 -9 1zM1494 -263l-101 -104
l-103 104l101 101zM1736 -263l-101 -104l-102 104l100 101z" />
    <glyph glyph-name="T_h.liga" unicode="Th" horiz-adv-x="1743" 
d="M927 963l-1 37q-5 29 -17 42t-49 13h-273q-3 -38 -5 -78t-2 -87v-693q0 -49 3.5 -79.5t11.5 -43.5q14 -24 69 -25l79 -5v-49q-128 5 -237 5q-61 0 -120 -1t-124 -4v49l79 5q56 1 69 25q8 13 11 43.5t3 79.5v693q0 47 -1.5 87t-4.5 78h-254q-37 0 -49.5 -13t-16.5 -42
l-6 -130h-51q0 67 -2.5 133.5t-8.5 130.5q87 0 176 -2t177 -2h238q44 0 88.5 1t106.5 2h1q54 9 108 20q63 13 126 38l14 -14v-554h4l121 105q28 23 56 32.5t77 9.5q145 0 207.5 -75.5t62.5 -210.5v-316q0 -33 2 -58t7 -38q10 -19 51 -23l68 -5v-49q-30 1 -64.5 3t-69.5 2
q-34 0 -69 -2t-62 -3v465q0 105 -52.5 157.5t-136.5 52.5q-37 0 -73.5 -15t-65 -37.5t-46 -50.5t-17.5 -52v-347q0 -33 2 -58t6 -38q11 -19 53 -23l74 -5v-49q-43 1 -92.5 3t-110.5 2t-111 -2t-93 -3v49l73 5q44 4 53 23q6 13 7 38t1 58v795z" />
    <glyph glyph-name="f_b.liga" unicode="fb" horiz-adv-x="1439" 
d="M756 152q0 -13 19.5 -28.5t50 -28.5t65.5 -22t65 -9q49 0 94 19.5t78 59t52.5 99.5t19.5 140q0 54 -13 104.5t-41 89.5t-70.5 62.5t-102.5 23.5q-49 0 -88 -17t-67.5 -41.5t-45 -51.5t-16.5 -46v-354zM558 1084v-34l-19 -11q-23 22 -50 34.5t-58 12.5q-38 0 -61.5 -11
t-37 -37t-17.5 -71t-4 -116v-139l214 6l-11 -87h-203v-463q0 -33 1.5 -58t6.5 -38q10 -19 53 -23l75 -5v-49q-44 1 -94 3t-111 2q-60 0 -110 -2t-95 -3v49l76 5q42 4 52 23q5 13 7 38t2 58v463l-113 -6v35l113 52v69q0 82 16 138.5t52 97.5l96 108q32 37 72.5 52.5
t74.5 15.5q18 0 37 -4.5t36 -13.5v-33q28 5 57 11q63 13 126 38l15 -14v-568h3l87 88q16 16 39.5 29.5t49.5 23t54.5 15t55.5 5.5q72 0 127.5 -26.5t93 -72.5t57.5 -106.5t20 -129.5q0 -41 -10 -85.5t-28 -85.5t-41.5 -75t-49.5 -54l-165 -119q-37 -27 -76.5 -31.5
t-72.5 -4.5q-54 0 -107.5 14t-95.5 45l-65 -59l-27 10q1 18 3 35.5t4 35.5l6 190v766q0 28 -6.5 47.5t-34.5 19.5h-19z" />
    <glyph glyph-name="f_f_b.liga" unicode="ffb" horiz-adv-x="1869" 
d="M1193 152q0 -13 19.5 -28.5t50 -28.5t65.5 -22t66 -9q48 0 93 19.5t78.5 59t53 99.5t19.5 140q0 54 -13.5 104.5t-41 89.5t-70.5 62.5t-103 23.5q-48 0 -87.5 -17t-68 -41.5t-45 -51.5t-16.5 -46v-354zM311 631v-463q0 -33 1.5 -58t6.5 -38q10 -19 53 -23l48 -5v-49
q-17 1 -67 3t-111 2q-60 0 -110 -2t-95 -3v49l76 5q42 4 52 23q5 13 7 38t2 58v463l-113 -6v35l113 52v69q0 82 16 138.5t52 97.5l96 108q32 37 72.5 52.5t74.5 15.5q18 0 37 -4.5t36 -13.5v-125l-19 -11q-23 22 -50 34.5t-58 12.5q-38 0 -61.5 -11t-37 -37t-17.5 -71
t-4 -116v-139h300v69q0 82 16.5 138.5t51.5 97.5l96 108q33 37 73 52.5t75 15.5q18 0 36.5 -4.5t35.5 -13.5v-33q29 5 57 11q64 13 127 38l14 -14v-568h3l87 88q17 16 40 29.5t49 23t54.5 15t55.5 5.5q72 0 127.5 -26.5t93.5 -72.5t57.5 -106.5t19.5 -129.5
q0 -41 -9.5 -85.5t-28 -85.5t-42 -75t-49.5 -54l-165 -119q-37 -27 -76.5 -31.5t-72.5 -4.5q-54 0 -107 14t-96 45l-65 -59l-26 10q1 18 2.5 35.5t3.5 35.5l7 190v766q0 28 -6.5 47.5t-34.5 19.5h-20v-34l-19 -11q-23 22 -49.5 34.5t-57.5 12.5q-38 0 -62 -11t-37 -37
t-17 -71t-4 -116v-139l214 6l-11 -87h-203v-463q0 -33 1 -58t7 -38q10 -19 53 -23l74 -5v-49q-43 1 -93.5 3t-111.5 2q-60 0 -110 -2t-76 -3v49l57 5q43 4 53 23q4 13 6 38t2 58v463h-300z" />
    <glyph glyph-name="f_f.liga" unicode="ff" horiz-adv-x="969" 
d="M311 631v-463q0 -33 1.5 -58t6.5 -38q10 -19 53 -23l48 -5v-49q-17 1 -67 3t-111 2q-60 0 -110 -2t-95 -3v49l76 5q42 4 52 23q5 13 7 38t2 58v463l-113 -6v35l113 52v69q0 82 16 138.5t52 97.5l96 108q32 37 72.5 52.5t74.5 15.5q18 0 37 -4.5t36 -13.5v-125l-19 -11
q-23 22 -50 34.5t-58 12.5q-38 0 -61.5 -11t-37 -37t-17.5 -71t-4 -116v-139h282v69q0 82 16.5 138.5t51.5 97.5l96 108q33 37 73 52.5t74 15.5q19 0 37.5 -4.5t35.5 -13.5v-125l-19 -11q-23 22 -49.5 34.5t-57.5 12.5q-39 0 -62.5 -11t-37 -37t-17.5 -71t-4 -116v-139
l214 6l-11 -87h-203v-463q0 -33 1.5 -58t6.5 -38q11 -19 53 -23l75 -5v-49q-44 1 -94 3t-111 2q-60 0 -110 -2t-68 -3v49l49 5q43 4 53 23q4 13 6 38t2 58v463h-282z" />
    <glyph glyph-name="f_h.liga" unicode="fh" horiz-adv-x="1427" 
d="M558 1084v-34l-19 -11q-23 22 -50 34.5t-58 12.5q-38 0 -61.5 -11t-37 -37t-17.5 -71t-4 -116v-139l214 6l-11 -87h-203v-463q0 -33 1.5 -58t6.5 -38q10 -19 53 -23l57 -5v-49q-26 1 -76 3t-111 2q-60 0 -110 -2t-95 -3v49l76 5q42 4 52 23q5 13 7 38t2 58v463l-113 -6
v35l113 52v69q0 82 16 138.5t52 97.5l96 108q32 37 72.5 52.5t74.5 15.5q18 0 37 -4.5t36 -13.5v-32q24 5 47 10q64 13 127 38l14 -14v-554h3l122 105q28 23 55.5 32.5t77.5 9.5q144 0 207 -75.5t63 -210.5v-316q0 -33 2 -58t6 -38q10 -19 52 -23l68 -5v-49q-30 1 -65 3
t-69 2t-69 -2t-62 -3v465q0 105 -52.5 157.5t-136.5 52.5q-37 0 -73.5 -15t-65.5 -37.5t-46 -50.5t-17 -52v-347q0 -33 1.5 -58t6.5 -38q11 -19 53 -23l74 -5v-49q-43 1 -93 3t-111 2t-110.5 -2t-73.5 -3v49l54 5q44 4 53 23q5 13 6.5 38t1.5 58v849q0 28 -6.5 47.5
t-34.5 19.5h-9z" />
    <glyph glyph-name="f_f_h.liga" unicode="ffh" horiz-adv-x="1838" 
d="M977 1084v-34l-19 -11q-23 22 -49.5 34.5t-57.5 12.5q-39 0 -62.5 -11t-37 -37t-17.5 -71t-4 -116v-139l214 6l-11 -87h-203v-463q0 -33 1.5 -58t6.5 -38q11 -19 53 -23l48 -5v-49q-17 1 -67 3t-111 2q-60 0 -110 -2t-68 -3v49l49 5q43 4 53 23q4 13 6 38t2 58v463h-282
v-463q0 -33 1.5 -58t6.5 -38q10 -19 53 -23l48 -5v-49q-17 1 -67 3t-111 2q-60 0 -110 -2t-95 -3v49l76 5q42 4 52 23q5 13 7 38t2 58v463l-113 -6v35l113 52v69q0 82 16 138.5t52 97.5l96 108q32 37 72.5 52.5t74.5 15.5q18 0 37 -4.5t36 -13.5v-125l-19 -11
q-23 22 -50 34.5t-58 12.5q-38 0 -61.5 -11t-37 -37t-17.5 -71t-4 -116v-139h282v69q0 82 16.5 138.5t51.5 97.5l96 108q33 37 73 52.5t74 15.5q19 0 37.5 -4.5t35.5 -13.5v-30l38 8q64 13 127 38l14 -14v-554h3l122 105q28 23 55.5 32.5t77.5 9.5q144 0 207 -75.5
t63 -210.5v-316q0 -33 2 -58t6 -38q10 -19 52 -23l68 -5v-49q-30 1 -65 3t-69 2t-69 -2t-62 -3v465q0 105 -52.5 157.5t-136.5 52.5q-37 0 -73.5 -15t-65.5 -37.5t-46 -50.5t-17 -52v-347q0 -33 1.5 -58t6.5 -38q11 -19 53 -23l74 -5v-49q-43 1 -93 3t-111 2t-110.5 -2
t-74.5 -3v49l55 5q44 4 53 23q5 13 6.5 38t1.5 58v849q0 28 -6.5 47.5t-34.5 19.5z" />
    <glyph glyph-name="f_f_i.liga" unicode="ffi" horiz-adv-x="1458" 
d="M311 631v-463q0 -33 1.5 -58t6.5 -38q10 -19 53 -23l57 -5v-49q-26 1 -76 3t-111 2q-60 0 -110 -2t-95 -3v49l76 5q42 4 52 23q5 13 7 38t2 58v463l-113 -6v35l113 52v69q0 82 16 138.5t52 97.5l96 108q32 37 72.5 52.5t74.5 15.5q18 0 37 -4.5t36 -13.5v-125l-19 -11
q-23 22 -50 34.5t-58 12.5q-38 0 -61.5 -11t-37 -37t-17.5 -71t-4 -116v-139h318v69q0 82 16.5 138.5t51.5 97.5l96 108q33 37 73 52.5t75 15.5q18 0 36.5 -4.5t36.5 -13.5v-125l-20 -11q-22 22 -49 34.5t-58 12.5q-38 0 -62 -11t-37 -37t-17 -71t-4 -116v-139l198 6
l-11 -87h-187v-463q0 -33 1 -58t7 -38q10 -19 53 -23l85 -5v-49q-52 1 -103 3t-113 2q-60 0 -110 -2t-76 -3v49l57 5q43 4 53 23q5 13 6.5 38t1.5 58v463h-318zM1281 168q0 -33 2 -58t7 -38q10 -19 53 -23l74 -5v-49q-44 1 -94 3t-111 2q-60 0 -110 -2t-95 -3v49l76 5
q44 4 53 23q4 13 6 38t2 58v365q0 39 -2.5 65.5t-8.5 36.5q-14 17 -61 17h-61v46q74 9 141.5 28.5t114.5 43.5l14 -13v-589zM1219 1127q36 0 64.5 -28.5t28.5 -63.5q0 -37 -28.5 -63.5t-64.5 -26.5t-63 26.5t-27 63.5q0 35 27 63.5t63 28.5z" />
    <glyph glyph-name="f_j.liga" unicode="fj" horiz-adv-x="941" 
d="M763 1127q37 0 65 -28.5t28 -63.5q0 -37 -28 -63.5t-65 -26.5q-35 0 -62 26.5t-27 63.5q0 35 27 63.5t62 28.5zM558 1050l-19 -11q-23 22 -50 34.5t-58 12.5q-38 0 -61.5 -11t-37 -37t-17.5 -71t-4 -116v-139l199 6l-11 -87h-188v-463q0 -33 1.5 -58t6.5 -38
q10 -19 53 -23l85 -5v-49q-52 1 -103 3t-112 2q-60 0 -110 -2t-95 -3v49l76 5q42 4 52 23q5 13 7 38t2 58v463l-113 -6v35l113 52v69q0 82 16 138.5t52 97.5l96 108q32 37 72.5 52.5t74.5 15.5q18 0 37 -4.5t36 -13.5v-125zM826 -31q0 -100 -23.5 -178.5t-64.5 -131.5
q-39 -49 -91 -86.5t-128 -37.5l-20 63q24 -4 55 -4q21 0 47 16.5t44 53.5q18 34 30 117.5t12 207.5v548q0 39 -2.5 65t-8.5 36q-13 18 -61 18h-61v46q74 9 142.5 28.5t113.5 39.5l16 -7v-794z" />
    <glyph glyph-name="f_f_j.liga" unicode="ffj" horiz-adv-x="1417" 
d="M311 631v-463q0 -33 1.5 -58t6.5 -38q10 -19 53 -23l57 -5v-49q-26 1 -76 3t-111 2q-60 0 -110 -2t-95 -3v49l76 5q42 4 52 23q5 13 7 38t2 58v463l-113 -6v35l113 52v69q0 82 16 138.5t52 97.5l96 108q32 37 72.5 52.5t74.5 15.5q18 0 37 -4.5t36 -13.5v-125l-19 -11
q-23 22 -50 34.5t-58 12.5q-38 0 -61.5 -11t-37 -37t-17.5 -71t-4 -116v-139h318v69q0 82 16.5 138.5t51.5 97.5l96 108q33 37 73 52.5t75 15.5q18 0 36.5 -4.5t36.5 -13.5v-125l-20 -11q-22 22 -49 34.5t-58 12.5q-38 0 -62 -11t-37 -37t-17 -71t-4 -116v-139l198 6
l-11 -87h-187v-463q0 -33 1 -58t7 -38q10 -19 53 -23l85 -5v-49q-52 1 -103 3t-113 2q-60 0 -110 -2t-76 -3v49l57 5q43 4 53 23q5 13 6.5 38t1.5 58v463h-318zM1219 1127q36 0 64.5 -28.5t28.5 -63.5q0 -37 -28.5 -63.5t-64.5 -26.5t-63 26.5t-27 63.5q0 35 27 63.5
t63 28.5zM1281 -31q0 -100 -23 -178.5t-64 -131.5q-39 -49 -91.5 -86.5t-128.5 -37.5l-20 63q25 -4 56 -4q20 0 46.5 16.5t43.5 53.5q18 34 30.5 117.5t12.5 207.5v548q0 39 -2.5 65t-9.5 36q-13 18 -61 18h-60v46q74 9 142 28.5t114 39.5l15 -7v-794z" />
    <glyph glyph-name="f_k.liga" unicode="fk" horiz-adv-x="1380" 
d="M558 1084v-34l-19 -11q-23 22 -50 34.5t-58 12.5q-38 0 -61.5 -11t-37 -37t-17.5 -71t-4 -116v-139l214 6l-11 -87h-203v-463q0 -33 1.5 -58t6.5 -38q10 -19 53 -23l66 -5v-49q-35 1 -85 3t-111 2q-60 0 -110 -2t-95 -3v49l76 5q42 4 52 23q5 13 7 38t2 58v463l-113 -6
v35l113 52v69q0 82 16 138.5t52 97.5l96 108q32 37 72.5 52.5t74.5 15.5q18 0 37 -4.5t36 -13.5v-36q37 6 74 14q64 13 127 38l13 -14v-749l120 97q65 53 130 115t116 113h164v-49h-8q-47 0 -89.5 -25t-79.5 -53l-212 -166q25 -28 51 -55.5t54 -55.5l207 -205q26 -26 64 -52
t75 -26v-38l-156 -48l-436 414v-226q0 -33 2 -58t6 -38q11 -19 53 -23l72 -5v-49q-42 1 -91 3t-110 2t-111 -2t-85 -3v49l66 5q42 4 52 23q6 13 7.5 38t1.5 58v849q0 28 -6.5 47.5t-34.5 19.5h-36z" />
    <glyph glyph-name="f_f_k.liga" unicode="ffk" horiz-adv-x="1853" 
d="M515 632l-1 -1h-203v-463q0 -33 1.5 -58t6.5 -38q10 -19 53 -23l75 -5v-49q-44 1 -94 3t-111 2q-60 0 -110 -2t-95 -3v49l76 5q42 4 52 23q5 13 7 38t2 58v463l-113 -6v35l113 52v69q0 82 16 138.5t52 97.5l96 108q32 37 72.5 52.5t74.5 15.5q18 0 37 -4.5t36 -13.5v-125
l-19 -11q-23 22 -50 34.5t-58 12.5q-38 0 -61.5 -11t-37 -37t-17.5 -71t-4 -116v-139h336v69q0 82 16.5 138.5t52.5 97.5l95 108q33 37 73 52.5t75 15.5q18 0 37 -4.5t36 -13.5v-36q36 6 74 14q63 13 126 38l14 -14v-749l120 97q65 53 130 115t116 113h164v-49h-8
q-47 0 -89.5 -25t-79.5 -53l-212 -166q25 -28 51 -55.5t54 -55.5l207 -205q26 -26 64 -52t75 -26v-38l-157 -48l-435 414v-226q0 -33 2 -58t6 -38q11 -19 53 -23l72 -5v-49q-42 1 -91 3t-110 2t-111.5 -2t-84.5 -3v49l65 5q43 4 53 23q6 13 7 38t1 58v849q0 28 -6 47.5
t-35 19.5h-35v-34l-19 -11q-23 22 -50 34.5t-58 12.5q-38 0 -61.5 -11t-37 -37t-17.5 -71t-4 -116v-139l214 6l-11 -87h-203v-463q0 -33 1.5 -58t6.5 -38q10 -19 53 -23l66 -5v-49q-35 1 -85 3t-111 2q-60 0 -110.5 -2t-94.5 -3v49l75 5q43 4 53 23q5 13 6.5 38t1.5 58v463z
" />
    <glyph glyph-name="f_f_l.liga" unicode="ffl" horiz-adv-x="1464" 
d="M515 632l-1 -1h-203v-463q0 -33 1.5 -58t6.5 -38q10 -19 53 -23l66 -5v-49q-35 1 -85 3t-111 2q-60 0 -110 -2t-95 -3v49l76 5q42 4 52 23q5 13 7 38t2 58v463l-113 -6v35l113 52v69q0 82 16 138.5t52 97.5l96 108q32 37 72.5 52.5t74.5 15.5q18 0 37 -4.5t36 -13.5v-125
l-19 -11q-23 22 -50 34.5t-58 12.5q-38 0 -61.5 -11t-37 -37t-17.5 -71t-4 -116v-139h336v69q0 82 16.5 138.5t52.5 97.5l95 108q33 37 73 52.5t75 15.5q18 0 40 -4.5t58 -13.5v-45q48 10 109.5 23.5t123.5 37.5l14 -18v-1005q0 -33 2 -58t7 -38q10 -19 52 -23l76 -5v-49
q-45 1 -94.5 3t-110.5 2q-60 0 -110 -2t-95 -3v49l76 5q42 4 51 23q6 13 7.5 38t1.5 58v826q0 13 -1.5 28.5t-5.5 29.5t-13 23t-21 9h-69v-34l-36 -11q-28 22 -56.5 34.5t-59.5 12.5q-38 0 -61.5 -11t-37 -37t-17.5 -71t-4 -116v-139l214 6l-11 -87h-203v-463q0 -33 1.5 -58
t6.5 -38q10 -19 53 -23l85 -5v-49q-52 1 -103 3t-112 2q-60 0 -110.5 -2t-85.5 -3v49l66 5q43 4 53 23q5 13 6.5 38t1.5 58v463z" />
    <glyph glyph-name="f_t.liga" unicode="ft" horiz-adv-x="962" 
d="M311 625v-457q0 -33 1.5 -58t6.5 -38q10 -19 53 -23l75 -5v-49q-44 1 -94 3t-111 2q-60 0 -110 -2t-95 -3v49l76 5q42 4 52 23q5 13 7 38t2 58v463l-113 -6v35l113 52v69q0 82 16 138.5t52 97.5l96 108q32 37 72.5 52.5t74.5 15.5q18 0 37 -4.5t36 -13.5v-125l-19 -11
q-23 22 -50 34.5t-58 12.5q-38 0 -61.5 -11t-37 -37t-17.5 -71t-4 -116v-139h281v114q0 33 -1.5 65t-5.5 65q44 12 81 30.5t59 32.5l19 -19q-8 -53 -12.5 -116.5t-4.5 -116.5v-62l224 10l-15 -89h-209v-429q0 -58 18.5 -86t70.5 -28q33 0 56 11t41 21l21 -28l-78 -87
q-12 -13 -46.5 -16.5t-60.5 -3.5q-33 0 -61.5 8t-50.5 28.5t-35 54.5t-13 84l-1 469z" />
    <glyph glyph-name="f_f_t.liga" unicode="fft" horiz-adv-x="1392" 
d="M311 631v-463q0 -33 1.5 -58t6.5 -38q10 -19 53 -23l48 -5v-49q-17 1 -67 3t-111 2q-60 0 -110 -2t-95 -3v49l76 5q42 4 52 23q5 13 7 38t2 58v463l-113 -6v35l113 52v69q0 82 16 138.5t52 97.5l96 108q32 37 72.5 52.5t74.5 15.5q18 0 37 -4.5t36 -13.5v-125l-19 -11
q-23 22 -50 34.5t-58 12.5q-38 0 -61.5 -11t-37 -37t-17.5 -71t-4 -116v-139h291v69q0 82 16.5 138.5t51.5 97.5l96 108q33 37 73 52.5t74 15.5q19 0 37.5 -4.5t35.5 -13.5v-125l-19 -11q-23 22 -49.5 34.5t-57.5 12.5q-39 0 -62.5 -11t-36.5 -37t-17.5 -71t-4.5 -116v-139
h281v114q0 33 -1.5 65t-4.5 65q43 12 80 30.5t59 32.5l19 -19q-8 -53 -12.5 -116.5t-4.5 -116.5v-62l224 10l-15 -89h-209v-429q0 -58 18.5 -86t70.5 -28q33 0 56 11t42 21l21 -28l-79 -87q-12 -13 -46.5 -16.5t-60.5 -3.5q-33 0 -61.5 8t-50.5 28.5t-35 54.5t-13 84l-1 469
l-277 1v-457q0 -33 1.5 -58t7.5 -38q10 -19 52 -23l75 -5v-49q-44 1 -94 3t-111 2q-60 0 -110 -2t-58 -3v49l39 5q43 4 53 23q4 13 6 38t2 58v463h-291z" />
    <glyph glyph-name="uni0647.fina" unicode="&#x647;" horiz-adv-x="1003" arabic-form="final" 
d="M1008 149q18 0 18 -35v-78q0 -36 -18 -36q-49 0 -96 0.5t-94 4.5q28 -44 41 -86.5t13 -87.5q0 -51 -15 -97t-40 -80t-56.5 -54t-64.5 -20q-25 0 -56.5 12.5t-65.5 33.5t-66 50.5t-56 63.5q-45 64 -71.5 129.5t-33.5 130.5q-71 -15 -137.5 -49t-114.5 -97q-5 -5 -8.5 -8
t-8.5 -3t-6 5.5t-1 14.5t8.5 34.5t24 56.5t37 61.5t47.5 48.5q25 21 62 38.5t88 35.5l1 11q19 334 201 543q171 -241 171 -416q0 -83 -31 -139q53 7 116.5 9.5t139.5 2.5h72zM792 -211q0 29 -17.5 66t-58.5 86q-44 44 -88.5 63t-106.5 19q-26 0 -50 -2t-46 -6
q20 -88 89 -170q63 -66 118 -99t99 -33q26 0 43.5 20t17.5 56zM647 231q0 87 -127 271q-117 -141 -117 -308v-45l72 11q30 5 57 8.5t54 12.5q61 22 61 50z" />
    <glyph glyph-name="uni0672.fina" unicode="&#x672;" horiz-adv-x="486" 
d="M509 36q0 -36 -16 -36h-32q-123 0 -198 61q-79 65 -80 183q-5 493 -43 899l108 103q24 -273 26 -966q0 -66 65 -103q48 -28 96 -28h58q16 0 16 -35v-78zM115 1326q-28 10 -46 10q-22 0 -44.5 -17t-28.5 -39q-15 7 -15 27q0 40 27 78.5t63 48.5l36 1l55 -5q-54 31 -54 77
q0 52 43 104.5t111 52.5q72 0 72 -48q0 -39 -42 -61q-19 39 -60 39q-60 0 -60 -42q0 -22 27 -46q30 -26 63 -26q28 0 87 20q33 11 67 23l-21 -86q-75 -28 -126.5 -79t-132.5 -36q-19 4 -21 4z" />
    <glyph glyph-name="uni0673.fina" unicode="&#x673;" horiz-adv-x="486" 
d="M509 36q0 -36 -17 -36h-32q-123 0 -197 61q-80 65 -81 183q-5 493 -42 899l107 103q24 -273 27 -966q0 -66 64 -103q49 -28 96 -28h58q17 0 17 -35v-78zM188 -429q-28 9 -46 9q-22 0 -44.5 -17t-28.5 -39q-15 8 -15 28q0 39 27 77.5t63 48.5l36 1l55 -4q-54 31 -54 76
q0 52 43 104.5t111 52.5q72 0 72 -47q0 -40 -42 -61q-19 39 -60 39q-60 0 -60 -42q0 -23 27 -47q30 -26 63 -26q28 0 87 20q33 12 67 24l-21 -87q-75 -27 -126.5 -78t-132.5 -37q-19 4 -21 5z" />
    <glyph glyph-name="uni0675.fina" unicode="&#x675;" horiz-adv-x="643" 
d="M625 1461l-29 -84l-142 -51q-137 -49 -144 -104q-18 19 -18 47q0 55 54 88q-61 35 -61 85q0 58 46 114q50 60 123 60q80 0 80 -53q0 -43 -46 -67q-22 44 -66 44q-66 0 -66 -48q0 -24 29 -51q33 -29 69 -29q31 0 97 23q36 13 74 26zM664 36q0 -36 -17 -36h-186
q-123 0 -198 61q-79 65 -80 183q-6 506 -43 874l108 102q23 -250 26 -940q0 -66 65 -103q48 -28 95 -28h213q17 0 17 -35v-78z" />
    <glyph glyph-name="uni0676.fina" unicode="&#x676;" horiz-adv-x="846" 
d="M813 933l-34 -95q-37 -4 -114 -24q-148 -40 -196 -105q-9 19 -9 41q0 56 70 95q-50 34 -50 95q0 59 59.5 117.5t127.5 58.5q95 0 95 -82q0 -17 -13 -30q-35 32 -97 32q-108 0 -108 -55q0 -32 33.5 -59.5t64.5 -27.5q86 0 171 39zM868 36q0 -36 -16 -36h-263
q0 -144 -112 -328q-70 -117 -117 -151q-37 -27 -100 -27q-73 0 -163 9q-97 11 -97 21q0 11 28 19q196 54 336 188q78 75 122 159q34 64 34 99v16q-42 -5 -126 -5q-129 0 -182 38.5t-53 129.5q0 112 54 217q64 122 154 122q95 0 156 -110q53 -95 68 -248h261q16 0 16 -35v-78
zM502 149q-5 71 -48 137q-49 72 -105 72q-47 0 -79.5 -33t-32.5 -81q0 -95 158 -95h107z" />
    <glyph glyph-name="uni0677.fina" unicode="&#x677;" horiz-adv-x="846" 
d="M813 933l-34 -95q-37 -4 -114 -24q-148 -40 -196 -105q-9 19 -9 41q0 56 70 95q-50 34 -50 95q0 59 59.5 117.5t127.5 58.5q95 0 95 -82q0 -17 -13 -30q-35 32 -97 32q-108 0 -108 -55q0 -32 33.5 -59.5t64.5 -27.5q86 0 171 39zM868 36q0 -36 -16 -36h-263
q0 -144 -112 -328q-70 -117 -117 -151q-37 -27 -100 -27q-73 0 -163 9q-97 11 -97 21q0 11 28 19q196 54 336 188q78 75 122 159q34 64 34 99v16q-42 -5 -126 -5q-129 0 -182 38.5t-53 129.5q0 112 54 217q64 122 154 122q95 0 156 -110q53 -95 68 -248h261q16 0 16 -35v-78
zM502 149q-5 71 -48 137q-49 72 -105 72q-47 0 -79.5 -33t-32.5 -81q0 -95 158 -95h107zM429 865q-29 -50 -54 -67l-60 22q-86 -112 -251 -112q-46 0 -60 30q44 3 133 36q94 37 128 69q-106 51 -106 114q0 50 60 104t112 54q71 0 71 -99q0 -82 -38 -129q40 -22 65 -22z
M342 975q0 64 -41 64q-21 0 -44 -13q-27 -15 -27 -36q0 -43 97 -84q15 20 15 69z" />
    <glyph glyph-name="uni0678.init" unicode="&#x678;" horiz-adv-x="667" 
d="M382 272q0 -154 -87 -216q-78 -56 -258 -56h-41q-36 0 -36 36v78q0 35 36 35h23q284 0 284 70q0 73 -85 178l68 151q96 -135 96 -276zM639 879l-34 -95q-37 -4 -114 -24q-148 -39 -196 -104q-9 18 -9 41q0 56 70 95q-50 33 -50 95q0 59 60 117t127 58q95 0 95 -82
q0 -16 -13 -30q-35 32 -97 32q-108 0 -108 -54q0 -32 33.5 -60t64.5 -28q86 0 171 39z" />
    <glyph glyph-name="uni0678.medi" unicode="&#x678;" horiz-adv-x="766" 
d="M791 36q0 -36 -17 -36h-170q-104 0 -157 24q-62 28 -95 104q-37 -74 -123 -103q-73 -25 -210 -25h-23q-36 0 -36 36v78q0 35 36 35h139q168 0 190 204q0 26 25 26t25 -26q22 -204 189 -204h210q17 0 17 -35v-78zM721 797l-34 -95q-37 -4 -114 -24q-148 -39 -196 -104
q-9 18 -9 41q0 56 70 95q-50 33 -50 95q0 59 60 117t127 58q95 0 95 -82q0 -16 -13 -30q-35 32 -97 32q-108 0 -108 -54q0 -32 33.5 -60t64.5 -28q86 0 171 39z" />
    <glyph glyph-name="uni0678.fina" unicode="&#x678;" horiz-adv-x="1532" 
d="M1511 541l-33 -96q-38 -3 -114 -23q-149 -39 -196 -105q-9 19 -9 41q0 57 70 96q-50 33 -50 94q0 60 59.5 118t127.5 58q94 0 94 -82q0 -17 -12 -30q-35 32 -97 32q-108 0 -108 -55q0 -31 33.5 -59t64.5 -28q86 0 170 39zM1552 36q0 -36 -16 -36h-307q-431 0 -431 -82
q0 -32 186 -56q138 -18 175 -41q32 -21 31 -82q-9 -336 -664 -336q-182 0 -294 76q-130 87 -130 260q0 128 52 245q46 103 84 103q23 0 23 -20q0 2 -35 -76.5t-35 -161.5q0 -155 117 -220q102 -57 320 -57q202 0 350 45q134 42 133 90q0 20 -105 35q-145 22 -194 38
q-104 34 -104 98q0 84 82 168q79 83 174 102q98 21 365 21h207q16 0 16 -35v-78z" />
    <glyph glyph-name="uni067C.init" unicode="&#x67c;" horiz-adv-x="563" 
d="M537 873l-101 -104l-103 104l102 101zM294 873l-100 -104l-103 104l101 101zM174 4q-5 -1 -12 -1q-54 -70 -54 -124q0 -29 24 -47t64 -18q32 0 72 16q43 17 43 34q0 32 -57 84q-46 43 -80 56zM110 0h-105q-36 0 -36 36v78q0 35 36 35h69q284 0 284 70q0 73 -86 178
l69 151q95 -135 95 -276q0 -154 -86 -216q-27 -19 -66 -31q20 -19 33 -37q31 -44 31 -99q0 -77 -48 -121q-47 -43 -122 -43q-54 0 -87 27q-35 31 -35 83q0 83 54 165z" />
    <glyph glyph-name="uni067C.medi" unicode="&#x67c;" horiz-adv-x="654" 
d="M525 810l-101 -105l-103 105l101 100zM282 810l-101 -105l-103 105l102 100zM180 6q-6 -1 -11 -1q-54 -69 -54 -123q0 -30 23.5 -47.5t63.5 -17.5q32 0 72 15q43 18 43 35q0 32 -56 84q-47 44 -81 55zM116 1q-28 -1 -60 -1h-60q-36 0 -36 36v78q0 35 36 35h175
q168 0 191 204q0 26 24 26q25 0 25 -26q23 -204 189 -204h64q18 0 18 -35v-78q0 -36 -18 -36h-23q-104 0 -157 24q-63 28 -96 104q-32 -65 -103 -95q24 -22 39 -42q30 -44 30 -99q0 -77 -48 -122q-46 -42 -122 -42q-54 0 -86 27q-36 31 -36 83q0 82 54 163z" />
    <glyph glyph-name="uni067C.fina" unicode="&#x67c;" horiz-adv-x="1499" 
d="M961 776l-101 -105l-103 105l101 101zM718 776l-100 -105l-103 105l101 101zM750 -5q-13 -1 -27 -2q-49 -66 -49 -119q0 -29 23.5 -46.5t64.5 -17.5q31 0 72 15q42 17 42 35q0 32 -56 84q-40 37 -70 51zM672 -10q-51 -3 -104 -3q-456 0 -456 282q0 81 36 159q31 70 53 70
q27 0 27 -24q0 -2 -19 -46t-19 -86q0 -205 417 -205q268 0 451 62q138 47 188 113q69 89 91 89q25 0 25 -26q0 -9 -11.5 -51t-11.5 -66q0 -109 142 -109h25q16 0 16 -35v-78q0 -36 -16 -36h-32q-180 0 -213 181q-136 -129 -399 -172q12 -13 21 -25q31 -44 31 -100
q0 -76 -49 -121q-46 -43 -122 -43q-53 0 -86 28q-36 31 -36 83q0 80 51 159z" />
    <glyph glyph-name="uni067D.init" unicode="&#x67d;" horiz-adv-x="501" 
d="M251 712l-104 106l102 107l105 -107zM373 928l-105 107l105 107l102 -107zM129 928l-103 107l103 107l103 -107zM382 272q0 -154 -87 -216q-78 -56 -258 -56h-41q-36 0 -36 36v78q0 35 36 35h23q284 0 284 70q0 73 -85 178l68 151q96 -135 96 -276z" />
    <glyph glyph-name="uni067D.medi" unicode="&#x67d;" horiz-adv-x="621" 
d="M264 575l-104 106l102 107l104 -107zM385 792l-104 105l104 107l103 -107zM143 792l-105 105l105 107l102 -107zM645 36q0 -36 -17 -36h-24q-104 0 -157 24q-62 28 -95 104q-37 -74 -123 -103q-73 -25 -210 -25h-23q-36 0 -36 36v78q0 35 36 35h139q168 0 190 204
q0 26 25 26t25 -26q22 -204 189 -204h64q17 0 17 -35v-78z" />
    <glyph glyph-name="uni067D.fina" unicode="&#x67d;" horiz-adv-x="1499" 
d="M741 575l-105 106l103 107l105 -107zM862 792l-105 105l105 107l103 -107zM619 792l-104 105l104 107l103 -107zM1522 36q0 -36 -16 -36h-32q-180 0 -213 181q-204 -194 -693 -194q-456 0 -456 282q0 81 36 159q31 70 53 70q27 0 27 -24q0 -2 -19 -46t-19 -86
q0 -205 417 -205q268 0 451 62q138 47 188 113q69 89 91 89q25 0 25 -26q0 -9 -11.5 -51t-11.5 -66q0 -109 142 -109h25q16 0 16 -35v-78z" />
    <glyph glyph-name="uni0681.init" unicode="&#x681;" horiz-adv-x="1132" 
d="M1081 424l-69 -137h-67q-86 0 -149 -21q-76 -25 -268 -124q-276 -142 -491 -142h-41q-36 0 -36 36v78q0 35 36 35h23q78 0 228 27q129 22 450 167v10q-311 128 -399 128q-63 0 -110.5 -43.5t-54.5 -43.5q-14 0 -14 19q0 60 57 134q66 83 146 83q83 0 386 -132
q160 -70 373 -74zM778 970l-28 -84l-142 -50q-138 -49 -144 -104q-18 19 -18 46q0 56 53 88q-61 35 -61 86q0 57 48 115t122 58q80 0 80 -52q0 -44 -47 -67q-21 43 -65 43q-67 0 -67 -47q0 -24 30 -51q32 -29 69 -29q31 0 96 22z" />
    <glyph glyph-name="uni0681.medi" unicode="&#x681;" horiz-adv-x="1137" 
d="M1162 36q0 -36 -18 -36h-23q-308 0 -308 215q0 72 9 111q-89 -34 -336 -186q-228 -140 -467 -140h-23q-36 0 -36 36v78q0 35 36 35h23q168 0 349 71q109 42 324 159v9q-346 93 -406 93q-62 0 -109.5 -43.5t-54.5 -43.5q-14 0 -14 19q0 60 57 134q66 83 146 83
q74 0 178 -35q164 -57 204 -67q142 -35 306 -35h90l-60 -144q-60 11 -151 -6l-2 -54q-5 -140 205 -140h63q18 0 18 -35v-78zM811 973l-28 -84l-142 -50q-138 -49 -144 -105q-19 19 -19 47q0 55 54 88q-61 35 -61 86q0 57 48 115t122 58q80 0 80 -52q0 -44 -47 -67
q-22 42 -65 42q-67 0 -67 -46q0 -25 29 -51q33 -29 70 -29q31 0 96 22z" />
    <glyph glyph-name="uni0681.fina" unicode="&#x681;" horiz-adv-x="1154" 
d="M1177 36q0 -36 -17 -36h-80q-168 0 -237 59q-63 55 -63 180q0 47 9 112q-227 -56 -378 -159q-201 -136 -201 -322q0 -312 532 -312q108 0 246 26q128 22 123 24q6 -1 6 -9q0 -35 -113 -101q-144 -84 -329 -84q-557 0 -554 407q2 386 504 573v9q-206 30 -316 30
q-63 0 -110 -45t-54 -45q-15 0 -15 19q0 61 58 135q66 85 146 85q84 0 269 -34q189 -33 269 -35l194 -4l-61 -142l-160 -7q-5 -30 -5 -56q0 -91 61 -125q55 -30 195 -30h64q17 0 17 -35v-78zM818 943l-29 -84l-142 -50q-137 -49 -144 -105q-18 19 -18 47q0 55 54 88
q-61 35 -61 86q0 57 48 115t121 58q80 0 80 -52q0 -44 -46 -68q-22 43 -66 43q-66 0 -66 -46q0 -25 29 -51q33 -29 69 -29q31 0 97 21q36 14 74 27z" />
    <glyph glyph-name="uni0682.init" unicode="&#x682;" horiz-adv-x="1132" 
d="M1081 424l-69 -137h-67q-86 0 -149 -21q-76 -25 -268 -124q-276 -142 -491 -142h-41q-36 0 -36 36v78q0 35 36 35h23q78 0 228 27q129 22 450 167v10q-311 128 -399 128q-63 0 -110.5 -43.5t-54.5 -43.5q-14 0 -14 19q0 60 57 134q66 83 146 83q83 0 386 -132
q160 -70 373 -74zM567 1099l-102 103l104 105l103 -105l-97 -101l99 -103l-102 -106l-105 106z" />
    <glyph glyph-name="uni0682.medi" unicode="&#x682;" horiz-adv-x="1137" 
d="M1162 36q0 -36 -18 -36h-23q-308 0 -308 215q0 72 9 111q-89 -34 -336 -186q-228 -140 -467 -140h-23q-36 0 -36 36v78q0 35 36 35h23q168 0 349 71q109 42 324 159v9q-346 93 -406 93q-62 0 -109.5 -43.5t-54.5 -43.5q-14 0 -14 19q0 60 57 134q66 83 146 83
q74 0 178 -35q164 -57 204 -67q142 -35 306 -35h90l-60 -144q-60 11 -151 -6l-2 -54q-5 -140 205 -140h63q18 0 18 -35v-78zM600 1099l-99 101l105 106l102 -106l-97 -101l97 -101l-102 -106l-105 106z" />
    <glyph glyph-name="uni0682.fina" unicode="&#x682;" horiz-adv-x="1154" 
d="M1177 36q0 -36 -17 -36h-80q-168 0 -237 59q-63 55 -63 180q0 47 9 112q-227 -56 -378 -159q-201 -136 -201 -322q0 -312 532 -312q108 0 246 26q128 22 123 24q6 -1 6 -9q0 -35 -113 -101q-144 -84 -329 -84q-557 0 -554 407q2 386 504 573v9q-206 30 -316 30
q-63 0 -110 -45t-54 -45q-15 0 -15 19q0 61 58 135q66 85 146 85q84 0 269 -34q189 -33 269 -35l194 -4l-61 -142l-160 -7q-5 -30 -5 -56q0 -91 61 -125q55 -30 195 -30h64q17 0 17 -35v-78zM608 1071l-101 103l105 107l102 -107l-99 -103l99 -103l-102 -106l-105 106z" />
    <glyph glyph-name="uni0685.init" unicode="&#x685;" horiz-adv-x="1132" 
d="M1081 424l-69 -137h-67q-86 0 -149 -21q-76 -25 -268 -124q-276 -142 -491 -142h-41q-36 0 -36 36v78q0 35 36 35h23q78 0 228 27q129 22 450 167v10q-311 128 -399 128q-63 0 -110.5 -43.5t-54.5 -43.5q-14 0 -14 19q0 60 57 134q66 83 146 83q83 0 386 -132
q160 -70 373 -74zM570 1317l103 -106l-103 -107l-104 107zM695 1101l103 -106l-103 -107l-105 107zM453 1101l103 -106l-103 -107l-105 107z" />
    <glyph glyph-name="uni0685.medi" unicode="&#x685;" horiz-adv-x="1137" 
d="M1162 36q0 -36 -18 -36h-23q-308 0 -308 215q0 72 9 111q-89 -34 -336 -186q-228 -140 -467 -140h-23q-36 0 -36 36v78q0 35 36 35h23q168 0 349 71q109 42 324 159v9q-346 93 -406 93q-62 0 -109.5 -43.5t-54.5 -43.5q-14 0 -14 19q0 60 57 134q66 83 146 83
q74 0 178 -35q164 -57 204 -67q142 -35 306 -35h90l-60 -144q-60 11 -151 -6l-2 -54q-5 -140 205 -140h63q18 0 18 -35v-78zM606 1314l103 -107l-103 -106l-105 106zM731 1097l103 -106l-103 -106l-105 106zM488 1097l103 -106l-103 -106l-104 106z" />
    <glyph glyph-name="uni0685.fina" unicode="&#x685;" horiz-adv-x="1154" 
d="M1177 36q0 -36 -17 -36h-80q-168 0 -237 59q-63 55 -63 180q0 47 9 112q-227 -56 -378 -159q-201 -136 -201 -322q0 -312 532 -312q108 0 246 26q128 22 123 24q6 -1 6 -9q0 -35 -113 -101q-144 -84 -329 -84q-557 0 -554 407q2 386 504 573v9q-206 30 -316 30
q-63 0 -110 -45t-54 -45q-15 0 -15 19q0 61 58 135q66 85 146 85q84 0 269 -34q189 -33 269 -35l194 -4l-61 -142l-160 -7q-5 -30 -5 -56q0 -91 61 -125q55 -30 195 -30h64q17 0 17 -35v-78zM615 1286l102 -106l-102 -107l-105 107zM739 1070l103 -106l-103 -107l-104 107z
M497 1070l103 -106l-103 -107l-105 107z" />
    <glyph glyph-name="uni0689.fina" unicode="&#x689;" horiz-adv-x="956" 
d="M407 1q-10 0 -20 -1q-52 -67 -52 -121q0 -29 24 -47t64 -18q32 0 72 16q42 17 42 34q0 32 -56 84q-42 39 -74 53zM337 0q-225 9 -225 196q0 71 20 117q17 40 36 40t19 -25q0 -6 -4 -31.5t-4 -36.5q0 -111 200 -111q296 0 296 114q0 30 -79.5 224t-80.5 211l74 132
q59 -175 198 -550q47 -116 123 -131h53q16 0 16 -35v-78q0 -36 -16 -36h-25q-74 0 -122 36q-44 31 -105 128q-34 -94 -126 -131q-28 -12 -63 -19q13 -13 22 -26q31 -44 31 -99q0 -77 -48 -121q-47 -43 -123 -43q-53 0 -86 27q-36 31 -36 83q0 83 55 165z" />
    <glyph glyph-name="uni068A.fina" unicode="&#x68a;" horiz-adv-x="956" 
d="M979 36q0 -36 -16 -36h-25q-74 0 -122 36q-44 31 -105 128q-34 -94 -126 -131q-78 -33 -225 -33q-248 0 -248 196q0 71 20 117q17 40 36 40t19 -25q0 -6 -4 -31.5t-4 -36.5q0 -111 200 -111q296 0 296 114q0 30 -79.5 224t-80.5 211l74 132q59 -175 198 -550
q47 -116 123 -131h53q16 0 16 -35v-78zM537 -261l-103 -106l-105 106l105 106z" />
    <glyph glyph-name="uni068B.fina" unicode="&#x68b;" horiz-adv-x="956" 
d="M979 36q0 -36 -16 -36h-25q-74 0 -122 36q-44 31 -105 128q-34 -94 -126 -131q-78 -33 -225 -33q-248 0 -248 196q0 71 20 117q17 40 36 40t19 -25q0 -6 -4 -31.5t-4 -36.5q0 -111 200 -111q296 0 296 114q0 30 -79.5 224t-80.5 211l74 132q59 -175 198 -550
q47 -116 123 -131h53q16 0 16 -35v-78zM700 1121q0 -49 -22.5 -80t-59.5 -52q-43 -19 -91 -26t-90 -7q-36 0 -61 6t-49 27q-17 19 -32.5 36t-15.5 25q0 10 9 10q7 0 23 -7t42 -7q17 0 30 6q2 13 3 28t1 25q0 16 -1.5 41.5t-4.5 55t-7.5 62t-10.5 65.5l61 57l60 -114l-45 6
q2 -23 2 -43v-37q0 -18 -1 -36t-4 -30l5 -3q17 22 37.5 41t41.5 33t42.5 22.5t41.5 8.5q18 0 35.5 -7t30.5 -21.5t21.5 -36t8.5 -48.5zM651 1092q0 7 -4.5 17t-12.5 19.5t-21 16.5t-29 7q-38 0 -79 -26.5t-87 -83.5q47 0 97 4t88 11q21 3 34.5 11t13.5 24zM537 -261
l-103 -106l-105 106l105 106z" />
    <glyph glyph-name="uni068F.fina" unicode="&#x68f;" horiz-adv-x="956" 
d="M979 36q0 -36 -16 -36h-25q-74 0 -122 36q-44 31 -105 128q-34 -94 -126 -131q-78 -33 -225 -33q-248 0 -248 196q0 71 20 117q17 40 36 40t19 -25q0 -6 -4 -31.5t-4 -36.5q0 -111 200 -111q296 0 296 114q0 30 -79.5 224t-80.5 211l74 132q59 -175 198 -550
q47 -116 123 -131h53q16 0 16 -35v-78zM567 1014l-103 107l103 106l104 -106zM442 1231l-103 105l103 107l105 -107zM684 1231l-103 105l103 107l105 -107z" />
    <glyph glyph-name="uni0690.fina" unicode="&#x690;" horiz-adv-x="956" 
d="M979 36q0 -36 -16 -36h-25q-74 0 -122 36q-44 31 -105 128q-34 -94 -126 -131q-78 -33 -225 -33q-248 0 -248 196q0 71 20 117q17 40 36 40t19 -25q0 -6 -4 -31.5t-4 -36.5q0 -111 200 -111q296 0 296 114q0 30 -79.5 224t-80.5 211l74 132q59 -175 198 -550
q47 -116 123 -131h53q16 0 16 -35v-78zM682 1223l-104 105l105 106l103 -106l-99 -103l102 -104l-103 -107l-105 107zM440 1223l-104 105l105 106l103 -106l-99 -103l102 -104l-103 -107l-105 107z" />
    <glyph glyph-name="uni0692.fina" unicode="&#x692;" horiz-adv-x="730" 
d="M753 36q0 -36 -16 -36h-25q-59 0 -130 30q7 -35 6 -86q-5 -149 -113 -312q-103 -154 -176 -154q-299 0 -299 25q0 11 62 27q135 34 283 162q172 149 172 271q0 99 -129 213l69 141q43 -56 88 -98q31 -30 81 -51q45 -19 70 -19h41q16 0 16 -35v-78zM348 617l-166 221h47
l161 -137l161 137h47l-167 -221h-83z" />
    <glyph glyph-name="uni0693.fina" unicode="&#x693;" horiz-adv-x="730" 
d="M372 -489q-16 -13 -30 -21q-39 -57 -39 -103q0 -29 24 -47t64 -18q32 0 72 16q43 17 43 34q0 32 -57 84q-45 41 -77 55zM287 -522q-287 1 -287 25q0 11 62 27q135 34 283 162q172 149 172 271q0 99 -129 213l69 141q43 -56 88 -98q31 -30 81 -51q45 -19 70 -19h41
q16 0 16 -35v-78q0 -36 -16 -36h-25q-59 0 -130 30q7 -35 6 -86q-5 -149 -113 -312q-23 -34 -44 -60q55 -39 81 -76q31 -44 31 -99q0 -77 -48 -121q-47 -43 -122 -43q-54 0 -87 27q-35 31 -35 83q0 68 36 135z" />
    <glyph glyph-name="uni0694.fina" unicode="&#x694;" horiz-adv-x="730" 
d="M753 36q0 -36 -16 -36h-25q-59 0 -130 30q7 -35 6 -86q-5 -149 -113 -312q-103 -154 -176 -154q-299 0 -299 25q0 11 62 27q135 34 283 162q172 149 172 271q0 99 -129 213l69 141q43 -56 88 -98q31 -30 81 -51q45 -19 70 -19h41q16 0 16 -35v-78zM628 -621l-103 -107
l-105 107l105 105z" />
    <glyph glyph-name="uni0695.fina" unicode="&#x695;" horiz-adv-x="730" 
d="M753 36q0 -36 -16 -36h-25q-59 0 -130 30q7 -35 6 -86q-5 -149 -113 -312q-103 -154 -176 -154q-299 0 -299 25q0 11 62 27q135 34 283 162q172 149 172 271q0 99 -129 213l69 141q43 -56 88 -98q31 -30 81 -51q45 -19 70 -19h41q16 0 16 -35v-78zM284 -832l-166 222h47
l161 -137l161 137h47l-167 -222h-83z" />
    <glyph glyph-name="uni0696.fina" unicode="&#x696;" horiz-adv-x="730" 
d="M753 36q0 -36 -16 -36h-25q-59 0 -130 30q7 -35 6 -86q-5 -149 -113 -312q-103 -154 -176 -154q-299 0 -299 25q0 11 62 27q135 34 283 162q172 149 172 271q0 99 -129 213l69 141q43 -56 88 -98q31 -30 81 -51q45 -19 70 -19h41q16 0 16 -35v-78zM628 -621l-103 -107
l-105 107l105 105zM377 -75l-103 -106l-105 106l105 106z" />
    <glyph glyph-name="uni0697.fina" unicode="&#x697;" horiz-adv-x="730" 
d="M130 666l105 107l103 -107l-103 -107zM374 666l103 107l103 -107l-103 -107zM753 36q0 -18 -3 -27t-13 -9h-25q-16 0 -30.5 1.5t-29.5 4.5t-31.5 9t-38.5 15q5 -21 5.5 -41.5t0.5 -44.5q0 -52 -15 -107.5t-40 -107.5t-56.5 -97.5t-63 -79.5t-62 -54t-52.5 -20
q-25 0 -56.5 0.5t-64.5 2t-65 3.5t-57 5t-40.5 6.5t-15.5 7.5q0 3 2 6t8 6t18.5 6.5t33.5 9.5q26 6 59.5 20t70.5 34.5t76 47t77 59.5q56 47 89.5 85.5t52 71t24.5 60t6 54.5q0 25 -11 53.5t-29.5 57t-41.5 55t-47 47.5l69 141q23 -29 42.5 -52t45.5 -46q16 -17 38 -29.5
t43 -21.5t40 -14t30 -5h41q10 0 13 -8.5t3 -26.5v-78z" />
    <glyph glyph-name="uni0699.fina" unicode="&#x699;" horiz-adv-x="730" 
d="M130 880l105 107l103 -107l-103 -107zM374 880l103 107l103 -107l-103 -107zM753 36q0 -18 -3 -27t-13 -9h-25q-16 0 -30.5 1.5t-29.5 4.5t-31.5 9t-38.5 15q5 -21 5.5 -41.5t0.5 -44.5q0 -52 -15 -107.5t-40 -107.5t-56.5 -97.5t-63 -79.5t-62 -54t-52.5 -20
q-25 0 -56.5 0.5t-64.5 2t-65 3.5t-57 5t-40.5 6.5t-15.5 7.5q0 3 2 6t8 6t18.5 6.5t33.5 9.5q26 6 59.5 20t70.5 34.5t76 47t77 59.5q56 47 89.5 85.5t52 71t24.5 60t6 54.5q0 25 -11 53.5t-29.5 57t-41.5 55t-47 47.5l69 141q23 -29 42.5 -52t45.5 -46q16 -17 38 -29.5
t43 -21.5t40 -14t30 -5h41q10 0 13 -8.5t3 -26.5v-78zM130 666l105 107l103 -107l-103 -107zM374 666l103 107l103 -107l-103 -107z" />
    <glyph glyph-name="uni069A.init" unicode="&#x69a;" horiz-adv-x="1175" 
d="M781 791l-105 -107l-102 107l104 106zM1092 272q0 -124 -60 -195q-64 -77 -189 -77q-114 0 -172 119q-70 -119 -205 -119q-91 0 -166 119q-90 -119 -281 -119h-23q-36 0 -36 36v78q0 35 36 35h50q227 0 227 179q0 26 25 26q24 0 24 -26q0 -179 164 -179q163 0 163 179
q0 26 23 26q25 0 25 -26q0 -67 28 -115q38 -64 112 -64q76 0 129 23q48 21 48 47q0 79 -86 178l70 151q94 -135 94 -276zM775 -261l-102 -106l-104 106l104 106z" />
    <glyph glyph-name="uni069A.medi" unicode="&#x69a;" horiz-adv-x="1238" 
d="M784 674l-104 -106l-103 106l105 107zM1262 36q0 -36 -17 -36h-24q-135 0 -205 114q-74 -114 -173 -114q-114 0 -172 119q-70 -119 -205 -119q-91 0 -166 119q-90 -119 -283 -119h-21q-36 0 -36 36v78q0 35 36 35h50q227 0 227 179q0 26 25 26q24 0 24 -26
q0 -179 164 -179q163 0 163 179q0 26 23 26q25 0 25 -26q0 -67 28 -115q38 -64 112 -64q159 0 159 179q0 26 24 26t24 -26q0 -179 179 -179h22q17 0 17 -35v-78zM775 -261l-102 -106l-104 106l104 106z" />
    <glyph glyph-name="uni069A.fina" unicode="&#x69a;" horiz-adv-x="1925" 
d="M1468 679l-105 -107l-103 107l105 106zM1947 36q0 -36 -17 -36h-24q-135 0 -205 114q-74 -114 -174 -114q-113 0 -171 119q-70 -119 -205 -119q-48 0 -77 13q4 -34 4 -102q0 -253 -230 -367q-156 -78 -372 -78q-144 0 -247 75q-127 91 -127 261q0 129 52 244
q46 105 84 105q23 0 23 -21q0 3 -35 -76t-35 -162q0 -266 351 -266q146 0 289 55q183 69 183 187q0 69 -28 132q-30 67 -120 189l77 144q55 -103 105.5 -143.5t122.5 -40.5q162 0 162 179q0 26 24 26q25 0 25 -26q0 -67 28 -115q38 -64 111 -64q159 0 159 179q0 26 25 26
q23 0 23 -26q0 -179 178 -179h24q17 0 17 -35v-78zM1466 -261l-102 -106l-105 106l105 106z" />
    <glyph glyph-name="uni069B.init" unicode="&#x69b;" horiz-adv-x="1175" 
d="M1092 272q0 -124 -60 -195q-64 -77 -189 -77q-114 0 -172 119q-70 -119 -205 -119q-91 0 -166 119q-90 -119 -281 -119h-23q-36 0 -36 36v78q0 35 36 35h50q227 0 227 179q0 26 25 26q24 0 24 -26q0 -179 164 -179q163 0 163 179q0 26 23 26q25 0 25 -26q0 -67 28 -115
q38 -64 112 -64q76 0 129 23q48 21 48 47q0 79 -86 178l70 151q94 -135 94 -276zM457 -256l105 107l103 -107l-103 -106zM575 -472l105 107l103 -107l-103 -107zM700 -256l105 107l102 -107l-102 -106z" />
    <glyph glyph-name="uni069B.medi" unicode="&#x69b;" horiz-adv-x="1238" 
d="M1262 36q0 -36 -17 -36h-24q-135 0 -205 114q-74 -114 -173 -114q-114 0 -172 119q-70 -119 -205 -119q-91 0 -166 119q-90 -119 -283 -119h-21q-36 0 -36 36v78q0 35 36 35h50q227 0 227 179q0 26 25 26q24 0 24 -26q0 -179 164 -179q163 0 163 179q0 26 23 26
q25 0 25 -26q0 -67 28 -115q38 -64 112 -64q159 0 159 179q0 26 24 26t24 -26q0 -179 179 -179h22q17 0 17 -35v-78zM457 -256l105 107l103 -107l-103 -106zM575 -472l105 107l103 -107l-103 -107zM700 -256l105 107l102 -107l-102 -106z" />
    <glyph glyph-name="uni069B.fina" unicode="&#x69b;" horiz-adv-x="1925" 
d="M1947 36q0 -36 -17 -36h-24q-135 0 -205 114q-74 -114 -174 -114q-113 0 -171 119q-70 -119 -205 -119q-48 0 -77 13q4 -34 4 -102q0 -253 -230 -367q-156 -78 -372 -78q-144 0 -247 75q-127 91 -127 261q0 129 52 244q46 105 84 105q23 0 23 -21q0 3 -35 -76t-35 -162
q0 -266 351 -266q146 0 289 55q183 69 183 187q0 69 -28 132q-30 67 -120 189l77 144q55 -103 105.5 -143.5t122.5 -40.5q162 0 162 179q0 26 24 26q25 0 25 -26q0 -67 28 -115q38 -64 111 -64q159 0 159 179q0 26 25 26q23 0 23 -26q0 -179 178 -179h24q17 0 17 -35v-78z
M1166 -256l105 107l103 -107l-103 -106zM1284 -472l104 107l103 -107l-103 -107zM1408 -256l105 107l103 -107l-103 -106z" />
    <glyph glyph-name="uni069C.init" unicode="&#x69c;" horiz-adv-x="1175" 
d="M1092 272q0 -124 -60 -195q-64 -77 -189 -77q-114 0 -172 119q-70 -119 -205 -119q-91 0 -166 119q-90 -119 -281 -119h-23q-36 0 -36 36v78q0 35 36 35h50q227 0 227 179q0 26 25 26q24 0 24 -26q0 -179 164 -179q163 0 163 179q0 26 23 26q25 0 25 -26q0 -67 28 -115
q38 -64 112 -64q76 0 129 23q48 21 48 47q0 79 -86 178l70 151q94 -135 94 -276zM457 -256l105 107l103 -107l-103 -106zM575 -472l105 107l103 -107l-103 -107zM700 -256l105 107l102 -107l-102 -106zM781 1009l-105 -106l-102 106l104 107zM902 793l-102 -106l-105 106
l105 106zM660 793l-103 -106l-104 106l104 106z" />
    <glyph glyph-name="uni069C.medi" unicode="&#x69c;" horiz-adv-x="1238" 
d="M786 897l-104 -106l-102 106l104 107zM907 681l-102 -106l-104 106l104 106zM665 681l-103 -106l-104 106l104 106zM1262 36q0 -36 -17 -36h-24q-135 0 -205 114q-74 -114 -173 -114q-114 0 -172 119q-70 -119 -205 -119q-91 0 -166 119q-90 -119 -283 -119h-21
q-36 0 -36 36v78q0 35 36 35h50q227 0 227 179q0 26 25 26q24 0 24 -26q0 -179 164 -179q163 0 163 179q0 26 23 26q25 0 25 -26q0 -67 28 -115q38 -64 112 -64q159 0 159 179q0 26 24 26t24 -26q0 -179 179 -179h22q17 0 17 -35v-78zM457 -256l105 107l103 -107l-103 -106z
M575 -472l105 107l103 -107l-103 -107zM700 -256l105 107l102 -107l-102 -106z" />
    <glyph glyph-name="uni069C.fina" unicode="&#x69c;" horiz-adv-x="1925" 
d="M1468 897l-105 -106l-103 106l105 107zM1589 681l-103 -106l-104 106l104 106zM1346 681l-102 -106l-105 106l105 106zM1947 36q0 -36 -17 -36h-24q-135 0 -205 114q-74 -114 -174 -114q-113 0 -171 119q-70 -119 -205 -119q-48 0 -77 13q4 -34 4 -102q0 -253 -230 -367
q-156 -78 -372 -78q-144 0 -247 75q-127 91 -127 261q0 129 52 244q46 105 84 105q23 0 23 -21q0 3 -35 -76t-35 -162q0 -266 351 -266q146 0 289 55q183 69 183 187q0 69 -28 132q-30 67 -120 189l77 144q55 -103 105.5 -143.5t122.5 -40.5q162 0 162 179q0 26 24 26
q25 0 25 -26q0 -67 28 -115q38 -64 111 -64q159 0 159 179q0 26 25 26q23 0 23 -26q0 -179 178 -179h24q17 0 17 -35v-78zM1166 -256l105 107l103 -107l-103 -106zM1284 -472l104 107l103 -107l-103 -107zM1408 -256l105 107l103 -107l-103 -106z" />
    <glyph glyph-name="uni069D.init" unicode="&#x69d;" horiz-adv-x="1337" 
d="M1255 347q0 -181 -200 -272q-164 -75 -418 -75q-171 0 -236 23t-101 96q-90 -119 -281 -119h-23q-36 0 -36 36v78q0 35 36 35h50q227 0 227 179q0 26 25 26q26 0 24 -26q-3 -71 34 -119q34 -45 85 -52q236 230 346 304q131 89 261 89q92 0 149.5 -55.5t57.5 -147.5z
M1165 285q0 48 -57.5 89t-134.5 41q-116 0 -302 -148q-123 -98 -123 -107q0 -11 67 -11q550 0 550 136zM1076 -263l-100 -104l-103 104l101 101zM834 -263l-101 -104l-102 104l100 101z" />
    <glyph glyph-name="uni069D.medi" unicode="&#x69d;" horiz-adv-x="1346" 
d="M1370 36q0 -36 -16 -36h-25q-124 0 -231 21q-88 16 -134 16q-7 0 -114 -18.5t-213 -18.5q-171 0 -236 23t-101 96q-90 -119 -281 -119h-23q-36 0 -36 36v78q0 35 36 35h50q227 0 227 179q0 26 25 26q26 0 24 -26q-3 -71 34 -119q34 -45 85 -52q236 230 346 304
q131 89 261 89q92 0 149.5 -55.5t57.5 -147.5q0 -86 -92 -205q38 7 82 7h109q16 0 16 -35v-78zM1165 285q0 48 -57.5 89t-134.5 41q-116 0 -302 -148q-123 -98 -123 -107q0 -11 67 -11q550 0 550 136zM1021 -263l-100 -104l-103 104l101 101zM779 -263l-101 -104l-102 104
l100 101z" />
    <glyph glyph-name="uni069D.fina" unicode="&#x69d;" horiz-adv-x="1979" 
d="M2002 36q0 -36 -18 -36h-24q-123 0 -232 21q-87 16 -134 16q-7 0 -114 -18.5t-212 -18.5q-112 0 -194 34q4 -41 4 -123q0 -253 -230 -367q-156 -78 -372 -78q-144 0 -247 75q-127 91 -127 261q0 129 52 244q46 105 84 105q23 0 23 -21q0 3 -35 -76t-35 -162
q0 -266 351 -266q146 0 289 55q183 69 183 187q0 117 -148 321l77 144q53 -85 147 -143q201 196 334.5 278t253.5 82q92 0 150 -55.5t58 -147.5q0 -86 -92 -205q37 7 82 7h108q18 0 18 -35v-78zM1796 285q0 48 -57 88q-59 42 -136 42q-115 0 -301 -148q-124 -98 -124 -107
q0 -11 67 -11q551 0 551 136zM1712 -263l-100 -104l-103 104l101 101zM1469 -263l-101 -104l-102 104l101 101z" />
    <glyph glyph-name="uni069E.init" unicode="&#x69e;" horiz-adv-x="1337" 
d="M1255 347q0 -181 -200 -272q-164 -75 -418 -75q-171 0 -236 23t-101 96q-90 -119 -281 -119h-23q-36 0 -36 36v78q0 35 36 35h50q227 0 227 179q0 26 25 26q26 0 24 -26q-3 -71 34 -119q34 -45 85 -52q236 230 346 304q131 89 261 89q92 0 149.5 -55.5t57.5 -147.5z
M1165 285q0 48 -57.5 89t-134.5 41q-116 0 -302 -148q-123 -98 -123 -107q0 -11 67 -11q550 0 550 136zM961 1009l-105 -106l-102 106l104 107zM1082 793l-103 -106l-104 106l104 106zM839 793l-102 -106l-105 106l105 106z" />
    <glyph glyph-name="uni069E.medi" unicode="&#x69e;" horiz-adv-x="1346" 
d="M1370 36q0 -36 -16 -36h-25q-124 0 -231 21q-88 16 -134 16q-7 0 -114 -18.5t-213 -18.5q-171 0 -236 23t-101 96q-90 -119 -281 -119h-23q-36 0 -36 36v78q0 35 36 35h50q227 0 227 179q0 26 25 26q26 0 24 -26q-3 -71 34 -119q34 -45 85 -52q236 230 346 304
q131 89 261 89q92 0 149.5 -55.5t57.5 -147.5q0 -86 -92 -205q38 7 82 7h109q16 0 16 -35v-78zM1165 285q0 48 -57.5 89t-134.5 41q-116 0 -302 -148q-123 -98 -123 -107q0 -11 67 -11q550 0 550 136zM961 1009l-105 -106l-102 106l104 107zM1082 793l-103 -106l-104 106
l104 106zM839 793l-102 -106l-105 106l105 106z" />
    <glyph glyph-name="uni069E.fina" unicode="&#x69e;" horiz-adv-x="1979" 
d="M2002 36q0 -36 -18 -36h-24q-123 0 -232 21q-87 16 -134 16q-7 0 -114 -18.5t-212 -18.5q-112 0 -194 34q4 -41 4 -123q0 -253 -230 -367q-156 -78 -372 -78q-144 0 -247 75q-127 91 -127 261q0 129 52 244q46 105 84 105q23 0 23 -21q0 3 -35 -76t-35 -162
q0 -266 351 -266q146 0 289 55q183 69 183 187q0 117 -148 321l77 144q53 -85 147 -143q201 196 334.5 278t253.5 82q92 0 150 -55.5t58 -147.5q0 -86 -92 -205q37 7 82 7h108q18 0 18 -35v-78zM1796 285q0 48 -57 88q-59 42 -136 42q-115 0 -301 -148q-124 -98 -124 -107
q0 -11 67 -11q551 0 551 136zM1606 1009l-105 -106l-103 106l105 107zM1727 793l-103 -106l-104 106l104 106zM1484 793l-102 -106l-105 106l105 106z" />
    <glyph glyph-name="uni069F.init" unicode="&#x69f;" horiz-adv-x="1112" 
d="M1029 347q0 -147 -163 -246q-166 -101 -421 -101h-449q-36 0 -36 36v78q0 35 36 35h139q63 0 62 45l-2 192q-2 150 -26 454q-23 286 -24 286q1 12 22 33l92 87l59 -173q17 -49 17 -58q0 -16 -63 7q0 -14 7 -207q5 -163 5 -212q0 -238 -32 -372l5 -3q188 180 311.5 251
t253.5 71q92 0 149.5 -55.5t57.5 -147.5zM939 285q0 48 -56 88q-59 42 -136 42q-89 0 -213 -64q-92 -49 -186 -121q-80 -62 -80 -71q0 -22 59 -22q612 0 612 148zM843 1009l-105 -106l-103 106l105 107zM964 793l-103 -106l-105 106l105 106zM721 793l-102 -106l-105 106
l105 106z" />
    <glyph glyph-name="uni069F.medi" unicode="&#x69f;" horiz-adv-x="1120" 
d="M1144 36q0 -36 -16 -36h-25q-123 0 -231 21q-87 15 -133 16q6 -1 -236 -19q-255 -18 -484 -18h-23q-36 0 -36 36v78q0 35 36 35h139q63 0 62 45l-2 192q-2 150 -26 454q-23 286 -24 286q1 12 22 33l92 87l59 -173q17 -49 17 -58q0 -16 -63 7q0 -14 7 -207q5 -163 5 -212
q0 -238 -32 -372l5 -3q188 180 311.5 251t253.5 71q92 0 149.5 -55.5t57.5 -147.5q0 -86 -91 -205q37 7 82 7h108q16 0 16 -35v-78zM939 285q0 48 -56 88q-59 42 -136 42q-89 0 -213 -64q-92 -49 -186 -121q-80 -62 -80 -71q0 -22 59 -22q612 0 612 148zM843 1009l-105 -106
l-103 106l105 107zM964 793l-103 -106l-105 106l105 106zM721 793l-102 -106l-105 106l105 106z" />
    <glyph glyph-name="uni069F.fina" unicode="&#x69f;" horiz-adv-x="1401" 
d="M1424 36q0 -36 -17 -36h-24q-124 0 -231 21q-94 17 -135 16q-108 -12 -216 -25q-215 -25 -347 -25q-180 0 -282 79q-80 62 -79 132q1 12 9 12q10 0 42 -21q56 -40 199 -41q81 -1 125 28q6 63 6 210q0 150 -26 454q-23 282 -24 286q1 12 21 33l92 87l60 -173
q17 -49 17 -58q0 -16 -64 7q1 -14 8 -207q5 -163 5 -212q0 -238 -31 -372l4 -3q187 180 310.5 251t254.5 71q92 0 149.5 -55.5t57.5 -147.5q0 -86 -92 -205q38 7 82 7h109q17 0 17 -35v-78zM1218 285q0 48 -56 88q-60 42 -136 42q-89 0 -212 -64q-93 -49 -187 -121
q-80 -62 -80 -71q0 -22 60 -22q611 0 611 148zM1115 1009l-105 -106l-103 106l105 107zM1236 793l-103 -106l-104 106l104 106zM993 793l-102 -106l-105 106l105 106z" />
    <glyph glyph-name="uni06A0.init" unicode="&#x6a0;" horiz-adv-x="828" 
d="M777 297l-52 -138q-466 -159 -706 -159h-23q-36 0 -36 36v78q0 35 36 35h23q59 0 210 17v10q-109 65 -109 180q0 106 99 216q107 120 239 120q73 0 144.5 -60.5t71.5 -122.5q0 -4 -5 -4l-75 22q-75 21 -141 21q-75 0 -145 -32q-83 -40 -83 -98q0 -62 89 -133
q85 -66 144 -66q87 0 319 78zM519 1131l-104 -107l-103 107l104 106zM641 914l-103 -106l-105 106l105 106zM397 914l-102 -106l-105 106l105 106z" />
    <glyph glyph-name="uni06A0.medi" unicode="&#x6a0;" horiz-adv-x="719" 
d="M743 36q0 -36 -16 -36h-25q-184 0 -313 123q-138 -123 -370 -123h-23q-36 0 -36 36v78q0 35 36 35h23q89 0 192 25.5t103 47.5q0 42 -117 123q-12 8 -37 17q0 72 50 116q58 52 170 52q214 -2 214 -133q0 -37 -59.5 -103t-59.5 -75q0 -21 83 -47q73 -23 105 -23h64
q16 0 16 -35v-78zM474 994l-105 -107l-103 107l105 107zM595 777l-103 -106l-105 106l105 107zM352 777l-102 -106l-105 106l105 107z" />
    <glyph glyph-name="uni06A0.fina" unicode="&#x6a0;" horiz-adv-x="1085" 
d="M1108 36q0 -36 -18 -36h-24q-205 0 -335 64q-95 47 -210 167q-330 -153 -330 -361q0 -165 151 -246q124 -66 325 -66q136 0 257 25q111 22 111 23q7 0 7 -5q0 -40 -115 -106q-143 -81 -328 -81q-225 0 -352 91q-145 103 -145 316q0 135 89 256q63 82 168 155q90 63 90 61
q0 30 -117 111q-13 10 -38 18q-2 62 42 105q58 55 178 55q245 0 245 -130q0 -72 -139 -172q153 -131 424 -131h46q18 0 18 -35v-78zM636 1039l-105 -106l-103 106l105 107zM757 823l-103 -106l-105 106l105 106zM514 823l-102 -106l-105 106l105 106z" />
    <glyph glyph-name="uni06A1.init" unicode="&#x6a1;" horiz-adv-x="647" 
d="M555 334q0 -181 -123 -257.5t-413 -76.5h-23q-36 0 -36 36v78q0 35 36 35h112q384 0 384 142q0 33 -12 52q-40 -26 -180 -26q-187 0 -187 144q0 103 45 208q57 137 155 137q120 0 185 -141q57 -126 57 -331zM455 487q-9 61 -53 112q-48 58 -108 58q-41 0 -72 -30t-31 -71
q0 -90 134 -90q89 0 130 21z" />
    <glyph glyph-name="uni06A1.medi" unicode="&#x6a1;" horiz-adv-x="723" 
d="M747 36q0 -36 -16 -36h-25q-179 0 -317 87q-108 -51 -178 -69q-75 -18 -192 -18h-23q-36 0 -36 36v78q0 35 36 35h23q182 0 233 24q-75 77 -75 146q0 126 75.5 229t163.5 103q83 0 134 -98q42 -82 42 -181q0 -101 -76 -193q44 -30 190 -30h25q16 0 16 -35v-78zM529 336
q0 54 -44 110t-90 56q-52 0 -103.5 -50.5t-51.5 -102.5q0 -43 63 -91q59 -46 97 -46q22 0 71 38q58 43 58 86z" />
    <glyph glyph-name="uni06A1.fina" unicode="&#x6a1;" horiz-adv-x="1513" 
d="M1536 36q0 -36 -17 -36h-25q-181 0 -317 89q-222 -102 -609 -102q-456 0 -456 282q0 81 36 159q31 70 53 70q27 0 27 -24q0 -2 -19 -46t-19 -86q0 -205 417 -205q282 0 434 39q-76 73 -76 143q0 126 75.5 229t162.5 103q84 0 135 -98q43 -82 43 -181q0 -101 -76 -193
q42 -30 150 -30h64q17 0 17 -35v-78zM1317 336q0 54 -43.5 110t-91.5 56q-51 0 -102.5 -50.5t-51.5 -102.5q0 -43 63 -91q60 -46 98 -46q21 0 70 38q58 43 58 86z" />
    <glyph glyph-name="uni06A2.init" unicode="&#x6a2;" horiz-adv-x="637" 
d="M555 334q0 -181 -123 -257.5t-413 -76.5h-23q-36 0 -36 36v78q0 35 36 35h112q384 0 384 142q0 33 -12 52q-40 -26 -180 -26q-187 0 -187 144q0 103 45 208q57 137 155 137q120 0 185 -141q57 -126 57 -331zM455 487q-9 61 -53 112q-48 58 -108 58q-41 0 -72 -30t-31 -71
q0 -90 134 -90q89 0 130 21zM384 -261l-102 -106l-105 106l105 106z" />
    <glyph glyph-name="uni06A2.medi" unicode="&#x6a2;" horiz-adv-x="723" 
d="M747 36q0 -36 -16 -36h-25q-179 0 -317 87q-108 -51 -178 -69q-75 -18 -192 -18h-23q-36 0 -36 36v78q0 35 36 35h23q182 0 233 24q-75 77 -75 146q0 126 75.5 229t163.5 103q83 0 134 -98q42 -82 42 -181q0 -101 -76 -193q44 -30 190 -30h25q16 0 16 -35v-78zM529 336
q0 54 -44 110t-90 56q-52 0 -103.5 -50.5t-51.5 -102.5q0 -43 63 -91q59 -46 97 -46q22 0 71 38q58 43 58 86zM493 -261l-102 -106l-105 106l105 106z" />
    <glyph glyph-name="uni06A2.fina" unicode="&#x6a2;" horiz-adv-x="1513" 
d="M1536 36q0 -36 -17 -36h-25q-181 0 -317 89q-222 -102 -609 -102q-456 0 -456 282q0 81 36 159q31 70 53 70q27 0 27 -24q0 -2 -19 -46t-19 -86q0 -205 417 -205q282 0 434 39q-76 73 -76 143q0 126 75.5 229t162.5 103q84 0 135 -98q43 -82 43 -181q0 -101 -76 -193
q42 -30 150 -30h64q17 0 17 -35v-78zM1317 336q0 54 -43.5 110t-91.5 56q-51 0 -102.5 -50.5t-51.5 -102.5q0 -43 63 -91q60 -46 98 -46q21 0 70 38q58 43 58 86zM1266 -261l-102 -106l-105 106l105 106z" />
    <glyph glyph-name="uni06A3.init" unicode="&#x6a3;" horiz-adv-x="637" 
d="M384 1099l-103 -106l-104 106l104 106zM555 334q0 -181 -123 -257.5t-413 -76.5h-23q-36 0 -36 36v78q0 35 36 35h112q384 0 384 142q0 33 -12 52q-40 -26 -180 -26q-187 0 -187 144q0 103 45 208q57 137 155 137q120 0 185 -141q57 -126 57 -331zM455 487q-9 61 -53 112
q-48 58 -108 58q-41 0 -72 -30t-31 -71q0 -90 134 -90q89 0 130 21zM384 -261l-102 -106l-105 106l105 106z" />
    <glyph glyph-name="uni06A3.medi" unicode="&#x6a3;" horiz-adv-x="723" 
d="M482 987l-102 -106l-105 106l105 106zM747 36q0 -36 -16 -36h-25q-179 0 -317 87q-108 -51 -178 -69q-75 -18 -192 -18h-23q-36 0 -36 36v78q0 35 36 35h23q182 0 233 24q-75 77 -75 146q0 126 75.5 229t163.5 103q83 0 134 -98q42 -82 42 -181q0 -101 -76 -193
q44 -30 190 -30h25q16 0 16 -35v-78zM529 336q0 54 -44 110t-90 56q-52 0 -103.5 -50.5t-51.5 -102.5q0 -43 63 -91q59 -46 97 -46q22 0 71 38q58 43 58 86zM475 -261l-102 -106l-105 106l105 106z" />
    <glyph glyph-name="uni06A3.fina" unicode="&#x6a3;" horiz-adv-x="1513" 
d="M1239 987l-103 -106l-104 106l104 106zM1536 36q0 -36 -17 -36h-25q-181 0 -317 89q-222 -102 -609 -102q-456 0 -456 282q0 81 36 159q31 70 53 70q27 0 27 -24q0 -2 -19 -46t-19 -86q0 -205 417 -205q282 0 434 39q-76 73 -76 143q0 126 75.5 229t162.5 103
q84 0 135 -98q43 -82 43 -181q0 -101 -76 -193q42 -30 150 -30h64q17 0 17 -35v-78zM1317 336q0 54 -43.5 110t-91.5 56q-51 0 -102.5 -50.5t-51.5 -102.5q0 -43 63 -91q60 -46 98 -46q21 0 70 38q58 43 58 86zM783 -261l-102 -106l-104 106l104 106z" />
    <glyph glyph-name="uni06A5.init" unicode="&#x6a5;" horiz-adv-x="637" 
d="M555 334q0 -181 -123 -257.5t-413 -76.5h-23q-36 0 -36 36v78q0 35 36 35h112q384 0 384 142q0 33 -12 52q-40 -26 -180 -26q-187 0 -187 144q0 103 45 208q57 137 155 137q120 0 185 -141q57 -126 57 -331zM455 487q-9 61 -53 112q-48 58 -108 58q-41 0 -72 -30t-31 -71
q0 -90 134 -90q89 0 130 21zM47 -256l105 107l103 -107l-103 -106zM165 -472l105 107l103 -107l-103 -107zM290 -256l105 107l103 -107l-103 -106z" />
    <glyph glyph-name="uni06A5.medi" unicode="&#x6a5;" horiz-adv-x="723" 
d="M747 36q0 -36 -16 -36h-25q-179 0 -317 87q-108 -51 -178 -69q-75 -18 -192 -18h-23q-36 0 -36 36v78q0 35 36 35h23q182 0 233 24q-75 77 -75 146q0 126 75.5 229t163.5 103q83 0 134 -98q42 -82 42 -181q0 -101 -76 -193q44 -30 190 -30h25q16 0 16 -35v-78zM529 336
q0 54 -44 110t-90 56q-52 0 -103.5 -50.5t-51.5 -102.5q0 -43 63 -91q59 -46 97 -46q22 0 71 38q58 43 58 86zM157 -256l105 107l102 -107l-102 -106zM274 -472l105 107l103 -107l-103 -107zM399 -256l105 107l103 -107l-103 -106z" />
    <glyph glyph-name="uni06A5.fina" unicode="&#x6a5;" horiz-adv-x="1513" 
d="M1536 36q0 -36 -17 -36h-25q-181 0 -317 89q-222 -102 -609 -102q-456 0 -456 282q0 81 36 159q31 70 53 70q27 0 27 -24q0 -2 -19 -46t-19 -86q0 -205 417 -205q282 0 434 39q-76 73 -76 143q0 126 75.5 229t162.5 103q84 0 135 -98q43 -82 43 -181q0 -101 -76 -193
q42 -30 150 -30h64q17 0 17 -35v-78zM1317 336q0 54 -43.5 110t-91.5 56q-51 0 -102.5 -50.5t-51.5 -102.5q0 -43 63 -91q60 -46 98 -46q21 0 70 38q58 43 58 86zM939 -256l105 107l103 -107l-103 -106zM1057 -472l105 107l102 -107l-102 -107zM1182 -256l104 107l103 -107
l-103 -106z" />
    <glyph glyph-name="uni06A7.init" unicode="&#x6a7;" horiz-adv-x="637" 
d="M384 1099l-103 -106l-104 106l104 106zM555 334q0 -181 -123 -257.5t-413 -76.5h-23q-36 0 -36 36v78q0 35 36 35h112q384 0 384 142q0 33 -12 52q-40 -26 -180 -26q-187 0 -187 144q0 103 45 208q57 137 155 137q120 0 185 -141q57 -126 57 -331zM455 487q-9 61 -53 112
q-48 58 -108 58q-41 0 -72 -30t-31 -71q0 -90 134 -90q89 0 130 21z" />
    <glyph glyph-name="uni06A7.medi" unicode="&#x6a7;" horiz-adv-x="723" 
d="M482 987l-102 -106l-105 106l105 106zM747 36q0 -36 -16 -36h-25q-179 0 -317 87q-108 -51 -178 -69q-75 -18 -192 -18h-23q-36 0 -36 36v78q0 35 36 35h23q182 0 233 24q-75 77 -75 146q0 126 75.5 229t163.5 103q83 0 134 -98q42 -82 42 -181q0 -101 -76 -193
q44 -30 190 -30h25q16 0 16 -35v-78zM529 336q0 54 -44 110t-90 56q-52 0 -103.5 -50.5t-51.5 -102.5q0 -43 63 -91q59 -46 97 -46q22 0 71 38q58 43 58 86z" />
    <glyph glyph-name="uni06A7.fina" unicode="&#x6a7;" horiz-adv-x="1290" 
d="M941 793l-101 -104l-102 104l100 101zM1313 36q0 -36 -18 -36h-23l-144 2q3 -36 3 -107q0 -183 -143 -295q-171 -134 -512 -134q-144 0 -247 75q-127 91 -127 261q0 129 52 244q46 105 84 105q23 0 23 -21q0 3 -35 -76t-35 -162q0 -266 351 -266q204 0 368 76
q159 72 159 156q0 92 -20 153q-52 -11 -177 -11q-190 0 -190 142q0 129 59 239q62 116 143 116q104 0 171 -126q48 -89 69 -222h171q18 0 18 -35v-78zM1033 160q-9 55 -53 115q-52 72 -110 72q-43 0 -76 -33.5t-33 -72.5q0 -50 34 -71t121 -21t117 11z" />
    <glyph glyph-name="uni06A8.init" unicode="&#x6a8;" horiz-adv-x="647" 
d="M555 334q0 -181 -123 -257.5t-413 -76.5h-23q-36 0 -36 36v78q0 35 36 35h112q384 0 384 142q0 33 -12 52q-40 -26 -180 -26q-187 0 -187 144q0 103 45 208q57 137 155 137q120 0 185 -141q57 -126 57 -331zM455 487q-9 61 -53 112q-48 58 -108 58q-41 0 -72 -30t-31 -71
q0 -90 134 -90q89 0 130 21zM403 1254l-105 -106l-102 106l104 106zM524 1038l-102 -107l-105 107l105 106zM282 1038l-103 -107l-104 107l104 106z" />
    <glyph glyph-name="uni06A8.medi" unicode="&#x6a8;" horiz-adv-x="723" 
d="M747 36q0 -36 -16 -36h-25q-179 0 -317 87q-108 -51 -178 -69q-75 -18 -192 -18h-23q-36 0 -36 36v78q0 35 36 35h23q182 0 233 24q-75 77 -75 146q0 126 75.5 229t163.5 103q83 0 134 -98q42 -82 42 -181q0 -101 -76 -193q44 -30 190 -30h25q16 0 16 -35v-78zM529 336
q0 54 -44 110t-90 56q-52 0 -103.5 -50.5t-51.5 -102.5q0 -43 63 -91q59 -46 97 -46q22 0 71 38q58 43 58 86zM485 1145l-105 -106l-102 106l104 106zM606 928l-102 -106l-105 106l105 107zM364 928l-103 -106l-104 106l104 107z" />
    <glyph glyph-name="uni06A8.fina" unicode="&#x6a8;" horiz-adv-x="1290" 
d="M1313 36q0 -36 -18 -36h-23l-144 2q3 -36 3 -107q0 -183 -143 -295q-171 -134 -512 -134q-144 0 -247 75q-127 91 -127 261q0 129 52 244q46 105 84 105q23 0 23 -21q0 3 -35 -76t-35 -162q0 -266 351 -266q204 0 368 76q159 72 159 156q0 92 -20 153q-52 -11 -177 -11
q-190 0 -190 142q0 129 59 239q62 116 143 116q104 0 171 -126q48 -89 69 -222h171q18 0 18 -35v-78zM1033 160q-9 55 -53 115q-52 72 -110 72q-43 0 -76 -33.5t-33 -72.5q0 -50 34 -71t121 -21t117 11zM969 1008l-104 -107l-103 107l104 105zM1090 791l-102 -107l-104 107
l104 106zM848 791l-103 -107l-104 107l104 106z" />
    <glyph glyph-name="uni06AA.init" unicode="&#x6aa;" horiz-adv-x="1456" 
d="M1089 149q74 1 108 13q79 28 79 83q-3 25 -34 52q-23 18 -52 32t-66.5 23.5t-85.5 14t-110 4.5h-640q-46 3 -55 15l-8 8l-6 6l-36 84l-5 16l-1 14l3 19l5 15l7 18l9 18l12 20l16 22l21 24l27 30l24 22l32 30l32 26l45 31l47 29l55 30l58 28l52 25l60 26l-20 -136l-54 -25
l-57 -28l-52 -28l-50 -30l-56 -39l-51 -38l-51 -45l-35 -38h699q67 0 117 -8t89 -24t70 -39.5t61 -53.5q37 -51 50 -81t13 -77q0 -57 -16 -96t-45 -68q-26 -25 -57 -40t-69 -22t-86 -9l-24 -2h-12q-32 -1 -70 0h-981q-27 0 -27 36v78q0 35 27 35h1063h31z" />
    <glyph glyph-name="uni06AA.medi" unicode="&#x6aa;" horiz-adv-x="1604" 
d="M1262 47q-12 -8 -25 -13q-31 -16 -69 -23t-86 -9l-24 -2h-12q-32 -1 -70 0h-981q-27 0 -27 36v78q0 35 27 35h1094q56 1 90 8q64 18 81.5 47.5t15 47.5t-33.5 45q-23 18 -52 32t-66.5 23.5t-85.5 14t-110 4.5h-640q-46 3 -55 15l-8 8l-6 6l-36 84l-5 16l-1 14l3 19l5 15
l7 18l9 18l12 20l16 22l21 24l27 30l24 22l32 30l32 26l45 31l47 29l55 30l58 28l52 25l60 26l-20 -136l-54 -25l-57 -28l-52 -28l-50 -30l-56 -39l-51 -38l-51 -45l-35 -38h699q67 0 117 -8t89 -24t70.5 -34.5t67 -59t64 -131t185.5 -114.5h64q17 0 17 -35v-78
q0 -36 -17 -36h-24q-104 0 -157 24q-63 28 -96 104q-24 -51 -73 -81z" />
    <glyph glyph-name="uni06AA.fina" unicode="&#x6aa;" horiz-adv-x="1743" 
d="M1397 47q-12 -8 -25 -13q-31 -16 -69 -23t-86 -9l-24 -2h-12q-32 -1 -70 0h-981q-27 0 -27 36v78q0 35 27 35h1094q56 1 90 8q64 18 81.5 47.5t15 47.5t-33.5 45q-23 18 -52 32t-66.5 23.5t-85.5 14t-110 4.5h-640q-46 3 -55 15l-8 8l-6 6l-36 84l-5 16l-1 14l3 19l5 15
l7 18l9 18l12 20l16 22l21 24l27 30l24 22l32 30l32 26l45 31l47 29l55 30l58 28l52 25l60 26l-20 -136l-54 -25l-57 -28l-52 -28l-50 -30l-56 -39l-51 -38l-51 -45l-35 -38h699q67 0 117 -8t89 -24t70.5 -34.5t67 -59t64 -131t185.5 -114.5h64q17 0 17 -35v-78
q0 -36 -17 -36h-24q-104 0 -157 24q-63 28 -96 104q-24 -51 -73 -81z" />
    <glyph glyph-name="uni06AB.init" unicode="&#x6ab;" horiz-adv-x="877" 
d="M797 940q-45 -13 -98 -29.5t-108.5 -34t-111.5 -35t-107 -34.5t-93.5 -32t-72.5 -27q51 -45 100 -89.5t87 -96.5q24 -32 42.5 -62t31 -61.5t19 -65t6.5 -72.5q0 -90 -30.5 -147.5t-90 -92t-148 -48t-204.5 -13.5h-24q-17 0 -17 36v78q0 35 17 35h24q47 0 96 2t94.5 7.5
t85.5 15.5t69.5 27t46.5 41t17 59q0 22 -12.5 49t-33 55.5t-46 56t-51 52t-49 44.5t-38.5 31l-7 -30q-20 20 -41.5 42.5t-36.5 40.5q-15 17 -24.5 28t-15 18.5t-7 13t-1.5 10.5q0 10 6 30.5t15 42.5t18 40t14 20q3 2 11 5t31 10.5l69 22.5l124 40q81 25 200 63t291 93z
M818 1284l-34 -105q-63 -19 -145 -45t-169.5 -55t-174.5 -59.5t-160 -58.5l37 109z" />
    <glyph glyph-name="uni06AB.medi" unicode="&#x6ab;" horiz-adv-x="928" 
d="M-22 114q0 35 17 35h24q47 0 96 2t94.5 7.5t85.5 15.5t69.5 27t46.5 41t17 59q0 22 -12 48.5t-32.5 56t-46.5 59.5t-56 60q-36 36 -73 69.5t-67 60.5t-48.5 48t-18.5 34q0 6 5 23t12 35.5t15 33t12 16.5q3 2 11 5t31 10.5l69 22.5l124 40q81 25 200 63t291 93l-47 -139
q-45 -13 -98 -29.5t-108.5 -34t-111.5 -35t-107 -34.5t-93.5 -32t-72.5 -27q30 -26 61.5 -56t66 -65.5t74 -77.5t86.5 -92l188 -203q25 -26 51 -46t55 -33t62.5 -19.5t74.5 -6.5h10q11 0 14 -8.5t3 -26.5v-78q0 -18 -3 -27t-14 -9h-24q-54 0 -97.5 11.5t-90 44t-101.5 91.5
t-130 154q-3 -90 -33.5 -147.5t-89 -92t-146.5 -48t-204 -13.5h-24q-17 0 -17 36v78zM818 1284l-34 -105q-63 -19 -145 -45t-169.5 -55t-174.5 -59.5t-160 -58.5l37 109z" />
    <glyph glyph-name="uni06AB.fina" unicode="&#x6ab;" horiz-adv-x="1750" 
d="M1608 940q-46 -13 -98.5 -29.5t-108 -34t-112 -35t-107 -34.5t-93 -32t-72.5 -27q32 -26 65 -56.5t68.5 -66t75 -77t86.5 -91.5l188 -203q25 -26 51 -46t55 -33t63.5 -19.5t75.5 -6.5h11q10 0 13.5 -8.5t3.5 -26.5v-78q0 -18 -3.5 -27t-13.5 -9h-24q-55 0 -99.5 11.5
t-91 44t-101 91.5t-130.5 154q-3 -70 -18 -116.5t-46 -79.5q-31 -35 -78 -57.5t-124 -36t-193 -19t-283 -5.5q-226 0 -341 67.5t-115 214.5q0 44 10.5 85.5t25 73.5t29.5 51t24 19q12 0 19.5 -6t7.5 -18q0 -7 -6 -18t-13 -27.5t-13 -38.5t-6 -48q0 -40 19.5 -76.5
t66.5 -65.5t127.5 -46t203.5 -17q194 0 318 10.5t195.5 31t98.5 51t27 71.5q0 22 -11.5 48.5t-32 56t-47 59.5t-55.5 60q-37 36 -74 69.5t-67 60.5t-48.5 48t-18.5 34q0 6 5 23t11.5 35.5t12.5 33t8 16.5q4 2 11 5t30.5 10.5t68.5 22.5l125 40q80 25 199.5 63t291.5 93z
M1629 1284l-34 -105q-63 -19 -145 -45t-169.5 -55t-174.5 -59.5t-160 -58.5l37 109z" />
    <glyph glyph-name="uni06AC.init" unicode="&#x6ac;" horiz-adv-x="877" 
d="M835 1246l-47 -149l-210 -75q-377 -133 -435 -160q89 -93 180 -187q163 -190 163 -374q0 -126 -63 -196q-95 -105 -394 -105h-33q-36 0 -36 36v78q0 35 36 35h23q404 0 404 152q0 66 -81 176q-74 101 -152 157l-10 -29q-125 114 -125 173q0 178 78 207zM349 1251
l-105 -107l-102 107l104 106z" />
    <glyph glyph-name="uni06AC.medi" unicode="&#x6ac;" horiz-adv-x="928" 
d="M952 36q0 -36 -16 -36h-25q-116 0 -200 64q-69 51 -221 237q-3 -172 -121 -240q-106 -61 -350 -61h-23q-36 0 -36 36v78q0 35 36 35h23q407 0 407 152q0 70 -95 186q-50 61 -178 186q-96 95 -96 112q0 172 65 196l717 265l-47 -149l-645 -235q16 -24 535 -602
q100 -111 239 -111h15q16 0 16 -35v-78zM352 1251l-105 -107l-102 107l104 106z" />
    <glyph glyph-name="uni06AC.fina" unicode="&#x6ac;" horiz-adv-x="1469" 
d="M1492 36q0 -36 -17 -36h-24q-88 0 -150 33t-98 102q-74 -80 -234 -114t-401 -34q-456 0 -456 282q0 81 36 159q31 70 53 70q27 0 27 -24q0 -2 -19 -47q-19 -44 -19 -85q0 -205 417 -205q117 0 226 11t206 39q29 11 53.5 20.5t41.5 23t27.5 32.5t10.5 49v9l-23 822l98 103
l19 -957q1 -66 55 -104q50 -36 130 -36h24q17 0 17 -35v-78zM827 647q0 -41 -16 -72t-40.5 -51t-54 -30t-56.5 -10q-34 0 -70 11t-78 40q-9 9 5 11q50 2 96 8.5t82.5 16t58 22t21.5 25.5q0 9 -10.5 15t-33.5 6h-78q-29 0 -48 5.5t-30.5 15.5t-16 23t-4.5 29q0 31 11 63.5
t32 61.5q48 67 96 67q18 0 31.5 -10.5t22.5 -24.5t13.5 -29.5t4.5 -24.5q0 -13 -12 -7q-22 12 -49 12q-21 0 -39.5 -7.5t-32 -17.5t-21.5 -21.5t-8 -20.5q0 -22 58 -22h75q46 0 68.5 -22.5t22.5 -61.5zM785 1136l-105 -107l-102 107l104 106z" />
    <glyph glyph-name="uni06AE.init" unicode="&#x6ae;" horiz-adv-x="877" 
d="M835 1246l-47 -149l-210 -75q-377 -133 -435 -160q89 -93 180 -187q163 -190 163 -374q0 -126 -63 -196q-95 -105 -394 -105h-33q-36 0 -36 36v78q0 35 36 35h23q404 0 404 152q0 66 -81 176q-74 101 -152 157l-10 -29q-125 114 -125 173q0 178 78 207zM132 -472l105 107
l103 -107l-103 -107zM257 -256l105 107l103 -107l-103 -106zM15 -256l104 107l103 -107l-103 -106z" />
    <glyph glyph-name="uni06AE.medi" unicode="&#x6ae;" horiz-adv-x="928" 
d="M952 36q0 -36 -16 -36h-25q-116 0 -200 64q-69 51 -221 237q-3 -172 -121 -240q-106 -61 -350 -61h-23q-36 0 -36 36v78q0 35 36 35h23q407 0 407 152q0 70 -95 186q-50 61 -178 186q-96 95 -96 112q0 172 65 196l717 265l-47 -149l-645 -235q16 -24 535 -602
q100 -111 239 -111h15q16 0 16 -35v-78zM260 -472l104 107l103 -107l-103 -107zM385 -256l104 107l103 -107l-103 -106zM142 -256l105 107l103 -107l-103 -106z" />
    <glyph glyph-name="uni06AE.fina" unicode="&#x6ae;" horiz-adv-x="1469" 
d="M1492 36q0 -36 -17 -36h-24q-88 0 -150 33t-98 102q-74 -80 -234 -114t-401 -34q-456 0 -456 282q0 81 36 159q31 70 53 70q27 0 27 -24q0 -2 -19 -47q-19 -44 -19 -85q0 -205 417 -205q117 0 226 11t206 39q29 11 53.5 20.5t41.5 23t27.5 32.5t10.5 49v9l-23 822l98 103
l19 -957q1 -66 55 -104q50 -36 130 -36h24q17 0 17 -35v-78zM827 647q0 -41 -16 -72t-40.5 -51t-54 -30t-56.5 -10q-34 0 -70 11t-78 40q-9 9 5 11q50 2 96 8.5t82.5 16t58 22t21.5 25.5q0 9 -10.5 15t-33.5 6h-78q-29 0 -48 5.5t-30.5 15.5t-16 23t-4.5 29q0 31 11 63.5
t32 61.5q48 67 96 67q18 0 31.5 -10.5t22.5 -24.5t13.5 -29.5t4.5 -24.5q0 -13 -12 -7q-22 12 -49 12q-21 0 -39.5 -7.5t-32 -17.5t-21.5 -21.5t-8 -20.5q0 -22 58 -22h75q46 0 68.5 -22.5t22.5 -61.5zM587 -472l104 107l103 -107l-103 -107zM711 -256l105 107l103 -107
l-103 -106zM469 -256l105 107l103 -107l-103 -106z" />
    <glyph glyph-name="uni06B0.init" unicode="&#x6b0;" horiz-adv-x="877" 
d="M818 1284l-34 -105q-63 -19 -145 -45t-169.5 -55t-174.5 -59.5t-160 -58.5l37 109zM573 871l-82 -26q-23 -41 -23 -77q0 -29 24 -47t64 -18q31 0 72 16q42 17 42 34q0 32 -56 84q-22 20 -41 34zM437 828q-34 -11 -65 -21q-51 -17 -93.5 -32t-72.5 -27q51 -45 100 -89.5
t87 -96.5q24 -32 42.5 -62t31 -61.5t19 -65t6.5 -72.5q0 -90 -30.5 -147.5t-90 -92t-148 -48t-204.5 -13.5h-24q-17 0 -17 36v78q0 35 17 35h24q47 0 96 2t94.5 7.5t85.5 15.5t69.5 27t46.5 41t17 59q0 22 -12.5 49t-33 55.5t-46 56t-51 52t-49 44.5t-38.5 31l-7 -30
q-20 20 -41.5 42.5t-36.5 40.5q-15 17 -24.5 28t-15 18.5t-7 13t-1.5 10.5q0 10 6 30.5t15 42.5t18 40t14 20q3 2 11 5t31 10.5l69 22.5l124 40q81 25 200 63t291 93l-47 -139q-45 -13 -97 -30q-21 -6 -41 -12q10 -11 18 -21q31 -43 31 -99q0 -77 -49 -121q-46 -43 -122 -43
q-53 0 -86 27q-36 31 -36 83t22 104z" />
    <glyph glyph-name="uni06B0.medi" unicode="&#x6b0;" horiz-adv-x="928" 
d="M818 1284l-34 -105q-63 -19 -145 -45t-169.5 -55t-174.5 -59.5t-160 -58.5l37 109zM587 876q-42 -14 -86 -28q-21 -39 -21 -74q0 -29 23.5 -46.5t63.5 -17.5q32 0 72 15q43 17 43 35q0 32 -56 84q-20 19 -39 32zM844 1079l-47 -139q-45 -13 -97 -30l-26 -8q8 -9 15 -18
q31 -44 31 -100q0 -76 -49 -121q-46 -43 -122 -43q-54 0 -86 28q-36 31 -36 83q0 50 20 101l-75 -25q-51 -17 -93.5 -32t-72.5 -27q30 -26 61.5 -56t66 -65.5t74 -77.5t86.5 -92l188 -203q25 -26 51 -46t55 -33t62.5 -19.5t74.5 -6.5h10q11 0 14 -8.5t3 -26.5v-78
q0 -18 -3 -27t-14 -9h-24q-54 0 -97.5 11.5t-90 44t-101.5 91.5t-130 154q-3 -90 -33.5 -147.5t-89 -92t-146.5 -48t-204 -13.5h-24q-17 0 -17 36v78q0 35 17 35h24q47 0 96 2t94.5 7.5t85.5 15.5t69.5 27t46.5 41t17 59q0 22 -12 48.5t-32.5 56t-46.5 59.5t-56 60
q-36 36 -73 69.5t-67 60.5t-48.5 48t-18.5 34q0 6 5 23t12 35.5t15 33t12 16.5q3 2 11 5t31 10.5l69 22.5l124 40q81 25 200 64q4 1 8 1l1 1q117 37 282 90z" />
    <glyph glyph-name="uni06B0.fina" unicode="&#x6b0;" horiz-adv-x="1750" 
d="M1629 1284l-34 -105q-63 -19 -145 -45t-169.5 -55t-174.5 -59.5t-160 -58.5l37 109zM1397 876q-42 -14 -86 -28q-21 -40 -21 -74q0 -29 23.5 -46.5t63.5 -17.5q32 0 72 15q43 17 43 35q0 32 -56 84q-20 19 -39 32zM1373 989q116 37 282 90l-47 -139q-46 -13 -98 -30
l-26 -8q8 -9 15 -18q31 -44 31 -100q0 -76 -49 -121q-46 -43 -122 -43q-54 0 -86 28q-36 31 -36 83q0 50 20 100q-38 -12 -74 -24q-51 -17 -93.5 -32t-72.5 -27q32 -26 65 -56.5t68.5 -66t75 -77t86.5 -91.5l188 -203q25 -26 51 -46t55 -33t63.5 -19.5t75.5 -6.5h11
q10 0 13.5 -8.5t3.5 -26.5v-78q0 -18 -3.5 -27t-13.5 -9h-24q-55 0 -99.5 11.5t-91 44t-101 91.5t-130.5 154q-3 -70 -18 -116.5t-46 -79.5q-31 -35 -78 -57.5t-124 -36t-193 -19t-283 -5.5q-226 0 -341 67.5t-115 214.5q0 44 10.5 85.5t25 73.5t29.5 51t24 19q12 0 19.5 -6
t7.5 -18q0 -7 -6 -18t-13 -27.5t-13 -38.5t-6 -48q0 -40 19.5 -76.5t66.5 -65.5t127.5 -46t203.5 -17q194 0 318 10.5t195.5 31t98.5 51t27 71.5q0 22 -11.5 48.5t-32 56t-47 59.5t-55.5 60q-37 36 -74 69.5t-67 60.5t-48.5 48t-18.5 34q0 6 5 23t11.5 35.5t12.5 33t8 16.5
q4 2 11 5t30.5 10.5t68.5 22.5l125 40q80 25 200 64q3 1 6 1q1 1 2 1h1z" />
    <glyph glyph-name="uni06B2.init" unicode="&#x6b2;" horiz-adv-x="877" 
d="M797 940q-45 -13 -98 -29.5t-108.5 -34t-111.5 -35t-107 -34.5t-93.5 -32t-72.5 -27q51 -45 100 -89.5t87 -96.5q24 -32 42.5 -62t31 -61.5t19 -65t6.5 -72.5q0 -90 -30.5 -147.5t-90 -92t-148 -48t-204.5 -13.5h-24q-17 0 -17 36v78q0 35 17 35h24q47 0 96 2t94.5 7.5
t85.5 15.5t69.5 27t46.5 41t17 59q0 22 -12.5 49t-33 55.5t-46 56t-51 52t-49 44.5t-38.5 31l-7 -30q-20 20 -41.5 42.5t-36.5 40.5q-15 17 -24.5 28t-15 18.5t-7 13t-1.5 10.5q0 10 6 30.5t15 42.5t18 40t14 20q3 2 11 5t31 10.5l69 22.5l124 40q81 25 200 63t291 93z
M818 1284l-34 -105q-63 -19 -145 -45t-169.5 -55t-174.5 -59.5t-160 -58.5l37 109zM257 -256l105 107l102 -107l-102 -106zM14 -256l105 107l103 -107l-103 -106z" />
    <glyph glyph-name="uni06B2.medi" unicode="&#x6b2;" horiz-adv-x="928" 
d="M-22 114q0 35 17 35h24q47 0 96 2t94.5 7.5t85.5 15.5t69.5 27t46.5 41t17 59q0 22 -12 48.5t-32.5 56t-46.5 59.5t-56 60q-36 36 -73 69.5t-67 60.5t-48.5 48t-18.5 34q0 6 5 23t12 35.5t15 33t12 16.5q3 2 11 5t31 10.5l69 22.5l124 40q81 25 200 63t291 93l-47 -139
q-45 -13 -98 -29.5t-108.5 -34t-111.5 -35t-107 -34.5t-93.5 -32t-72.5 -27q30 -26 61.5 -56t66 -65.5t74 -77.5t86.5 -92l188 -203q25 -26 51 -46t55 -33t62.5 -19.5t74.5 -6.5h10q11 0 14 -8.5t3 -26.5v-78q0 -18 -3 -27t-14 -9h-24q-54 0 -97.5 11.5t-90 44t-101.5 91.5
t-130 154q-3 -90 -33.5 -147.5t-89 -92t-146.5 -48t-204 -13.5h-24q-17 0 -17 36v78zM818 1284l-34 -105q-63 -19 -145 -45t-169.5 -55t-174.5 -59.5t-160 -58.5l37 109zM403 -256l104 107l103 -107l-103 -106zM160 -256l105 107l103 -107l-103 -106z" />
    <glyph glyph-name="uni06B2.fina" unicode="&#x6b2;" horiz-adv-x="1750" 
d="M1608 940q-46 -13 -98.5 -29.5t-108 -34t-112 -35t-107 -34.5t-93 -32t-72.5 -27q32 -26 65 -56.5t68.5 -66t75 -77t86.5 -91.5l188 -203q25 -26 51 -46t55 -33t63.5 -19.5t75.5 -6.5h11q10 0 13.5 -8.5t3.5 -26.5v-78q0 -18 -3.5 -27t-13.5 -9h-24q-55 0 -99.5 11.5
t-91 44t-101 91.5t-130.5 154q-3 -70 -18 -116.5t-46 -79.5q-31 -35 -78 -57.5t-124 -36t-193 -19t-283 -5.5q-226 0 -341 67.5t-115 214.5q0 44 10.5 85.5t25 73.5t29.5 51t24 19q12 0 19.5 -6t7.5 -18q0 -7 -6 -18t-13 -27.5t-13 -38.5t-6 -48q0 -40 19.5 -76.5
t66.5 -65.5t127.5 -46t203.5 -17q194 0 318 10.5t195.5 31t98.5 51t27 71.5q0 22 -11.5 48.5t-32 56t-47 59.5t-55.5 60q-37 36 -74 69.5t-67 60.5t-48.5 48t-18.5 34q0 6 5 23t11.5 35.5t12.5 33t8 16.5q4 2 11 5t30.5 10.5t68.5 22.5l125 40q80 25 199.5 63t291.5 93z
M1629 1284l-34 -105q-63 -19 -145 -45t-169.5 -55t-174.5 -59.5t-160 -58.5l37 109zM711 -256l105 107l103 -107l-103 -106zM469 -256l105 107l103 -107l-103 -106z" />
    <glyph glyph-name="uni06B4.init" unicode="&#x6b4;" horiz-adv-x="877" 
d="M797 940q-45 -13 -98 -29.5t-108.5 -34t-111.5 -35t-107 -34.5t-93.5 -32t-72.5 -27q51 -45 100 -89.5t87 -96.5q24 -32 42.5 -62t31 -61.5t19 -65t6.5 -72.5q0 -90 -30.5 -147.5t-90 -92t-148 -48t-204.5 -13.5h-24q-17 0 -17 36v78q0 35 17 35h24q47 0 96 2t94.5 7.5
t85.5 15.5t69.5 27t46.5 41t17 59q0 22 -12.5 49t-33 55.5t-46 56t-51 52t-49 44.5t-38.5 31l-7 -30q-20 20 -41.5 42.5t-36.5 40.5q-15 17 -24.5 28t-15 18.5t-7 13t-1.5 10.5q0 10 6 30.5t15 42.5t18 40t14 20q3 2 11 5t31 10.5l69 22.5l124 40q81 25 200 63t291 93z
M818 1284l-34 -105q-63 -19 -145 -45t-169.5 -55t-174.5 -59.5t-160 -58.5l37 109zM334 1562l-105 -106l-102 106l104 106zM455 1346l-102 -107l-104 107l104 106zM213 1346l-103 -107l-104 107l104 106z" />
    <glyph glyph-name="uni06B4.medi" unicode="&#x6b4;" horiz-adv-x="928" 
d="M-22 114q0 35 17 35h24q47 0 96 2t94.5 7.5t85.5 15.5t69.5 27t46.5 41t17 59q0 22 -12 48.5t-32.5 56t-46.5 59.5t-56 60q-36 36 -73 69.5t-67 60.5t-48.5 48t-18.5 34q0 6 5 23t12 35.5t15 33t12 16.5q3 2 11 5t31 10.5l69 22.5l124 40q81 25 200 63t291 93l-47 -139
q-45 -13 -98 -29.5t-108.5 -34t-111.5 -35t-107 -34.5t-93.5 -32t-72.5 -27q30 -26 61.5 -56t66 -65.5t74 -77.5t86.5 -92l188 -203q25 -26 51 -46t55 -33t62.5 -19.5t74.5 -6.5h10q11 0 14 -8.5t3 -26.5v-78q0 -18 -3 -27t-14 -9h-24q-54 0 -97.5 11.5t-90 44t-101.5 91.5
t-130 154q-3 -90 -33.5 -147.5t-89 -92t-146.5 -48t-204 -13.5h-24q-17 0 -17 36v78zM818 1284l-34 -105q-63 -19 -145 -45t-169.5 -55t-174.5 -59.5t-160 -58.5l37 109zM334 1562l-105 -106l-102 106l104 106zM455 1346l-102 -107l-104 107l104 106zM213 1346l-103 -107
l-104 107l104 106z" />
    <glyph glyph-name="uni06B4.fina" unicode="&#x6b4;" horiz-adv-x="1750" 
d="M1608 940q-46 -13 -98.5 -29.5t-108 -34t-112 -35t-107 -34.5t-93 -32t-72.5 -27q32 -26 65 -56.5t68.5 -66t75 -77t86.5 -91.5l188 -203q25 -26 51 -46t55 -33t63.5 -19.5t75.5 -6.5h11q10 0 13.5 -8.5t3.5 -26.5v-78q0 -18 -3.5 -27t-13.5 -9h-24q-55 0 -99.5 11.5
t-91 44t-101 91.5t-130.5 154q-3 -70 -18 -116.5t-46 -79.5q-31 -35 -78 -57.5t-124 -36t-193 -19t-283 -5.5q-226 0 -341 67.5t-115 214.5q0 44 10.5 85.5t25 73.5t29.5 51t24 19q12 0 19.5 -6t7.5 -18q0 -7 -6 -18t-13 -27.5t-13 -38.5t-6 -48q0 -40 19.5 -76.5
t66.5 -65.5t127.5 -46t203.5 -17q194 0 318 10.5t195.5 31t98.5 51t27 71.5q0 22 -11.5 48.5t-32 56t-47 59.5t-55.5 60q-37 36 -74 69.5t-67 60.5t-48.5 48t-18.5 34q0 6 5 23t11.5 35.5t12.5 33t8 16.5q4 2 11 5t30.5 10.5t68.5 22.5l125 40q80 25 199.5 63t291.5 93z
M1629 1284l-34 -105q-63 -19 -145 -45t-169.5 -55t-174.5 -59.5t-160 -58.5l37 109zM1162 1562l-104 -106l-102 106l103 106zM1284 1346l-102 -107l-105 107l105 106zM1041 1346l-103 -107l-104 107l104 106z" />
    <glyph glyph-name="uni06B5.init" unicode="&#x6b5;" horiz-adv-x="507" 
d="M366 1013q0 -14 -63 9l11 -349v-326q0 -200 -78 -280q-66 -67 -217 -67h-23q-36 0 -36 36v78q0 35 36 35h23q123 0 171 25q42 23 42 77q0 61 -11 223l-44 651q-1 11 22 34l91 87l60 -173q16 -49 16 -60zM189 1367l-166 221h46l162 -137l161 137h46l-166 -221h-83z" />
    <glyph glyph-name="uni06B5.medi" unicode="&#x6b5;" horiz-adv-x="512" 
d="M537 36q0 -36 -18 -36h-23q-177 0 -249 118q-70 -118 -228 -118h-23q-36 0 -36 36v78q0 35 36 35h23q42 0 100 11q101 20 97 161l-23 822l99 103l19 -957q1 -66 54 -104q51 -36 131 -36h23q18 0 18 -35v-78zM198 1367l-166 221h46l162 -137l161 137h46l-166 -221h-83z
" />
    <glyph glyph-name="uni06B5.fina" unicode="&#x6b5;" horiz-adv-x="1228" 
d="M1251 36q0 -36 -17 -36h-24q-113 0 -189 56v-127q0 -216 -158 -338q-149 -113 -392 -113q-164 0 -259 71q-110 82 -110 251q0 110 36.5 206.5t75.5 96.5q19 0 20 -22q-2 1 -22 -57q-21 -65 -21 -147q0 -239 310 -239q165 0 304 66q143 68 143 154q0 372 -61 1285l109 103
l35 -974q2 -55 51.5 -89t127.5 -34h24q17 0 17 -35v-78zM888 1367l-166 221h47l161 -137l161 137h47l-167 -221h-83z" />
    <glyph glyph-name="uni06B6.init" unicode="&#x6b6;" horiz-adv-x="507" 
d="M366 1013q0 -14 -63 9l11 -349v-326q0 -200 -78 -280q-66 -67 -217 -67h-23q-36 0 -36 36v78q0 35 36 35h23q123 0 171 25q42 23 42 77q0 61 -11 223l-44 651q-1 11 22 34l91 87l60 -173q16 -49 16 -60zM333 1472l-105 -106l-102 106l104 106z" />
    <glyph glyph-name="uni06B6.medi" unicode="&#x6b6;" horiz-adv-x="512" 
d="M537 36q0 -36 -18 -36h-23q-177 0 -249 118q-70 -118 -228 -118h-23q-36 0 -36 36v78q0 35 36 35h23q42 0 100 11q101 20 97 161l-23 822l99 103l19 -957q1 -66 54 -104q51 -36 131 -36h23q18 0 18 -35v-78zM342 1472l-105 -106l-102 106l104 106z" />
    <glyph glyph-name="uni06B6.fina" unicode="&#x6b6;" horiz-adv-x="1228" 
d="M1251 36q0 -36 -17 -36h-24q-113 0 -189 56v-127q0 -216 -158 -338q-149 -113 -392 -113q-164 0 -259 71q-110 82 -110 251q0 110 36.5 206.5t75.5 96.5q19 0 20 -22q-2 1 -22 -57q-21 -65 -21 -147q0 -239 310 -239q165 0 304 66q143 68 143 154q0 372 -61 1285l109 103
l35 -974q2 -55 51.5 -89t127.5 -34h24q17 0 17 -35v-78zM1032 1472l-105 -106l-102 106l104 106z" />
    <glyph glyph-name="uni06B7.init" unicode="&#x6b7;" horiz-adv-x="507" 
d="M366 1013q0 -14 -63 9l11 -349v-326q0 -200 -78 -280q-66 -67 -217 -67h-23q-36 0 -36 36v78q0 35 36 35h23q123 0 171 25q42 23 42 77q0 61 -11 223l-44 651q-1 11 22 34l91 87l60 -173q16 -49 16 -60zM334 1686l-104 -106l-102 106l103 106zM456 1469l-102 -106
l-105 106l105 107zM213 1469l-103 -106l-104 106l104 107z" />
    <glyph glyph-name="uni06B7.medi" unicode="&#x6b7;" horiz-adv-x="512" 
d="M537 36q0 -36 -18 -36h-23q-177 0 -249 118q-70 -118 -228 -118h-23q-36 0 -36 36v78q0 35 36 35h23q42 0 100 11q101 20 97 161l-23 822l99 103l19 -957q1 -66 54 -104q51 -36 131 -36h23q18 0 18 -35v-78zM342 1686l-105 -106l-102 106l104 106zM463 1469l-102 -106
l-105 106l105 107zM221 1469l-103 -106l-104 106l104 107z" />
    <glyph glyph-name="uni06B7.fina" unicode="&#x6b7;" horiz-adv-x="1228" 
d="M1251 36q0 -36 -17 -36h-24q-113 0 -189 56v-127q0 -216 -158 -338q-149 -113 -392 -113q-164 0 -259 71q-110 82 -110 251q0 110 36.5 206.5t75.5 96.5q19 0 20 -22q-2 1 -22 -57q-21 -65 -21 -147q0 -239 310 -239q165 0 304 66q143 68 143 154q0 372 -61 1285l109 103
l35 -974q2 -55 51.5 -89t127.5 -34h24q17 0 17 -35v-78zM1034 1680l-105 -107l-102 107l104 106zM1155 1463l-102 -106l-105 106l105 107zM913 1463l-103 -106l-104 106l104 107z" />
    <glyph glyph-name="uni06B8.init" unicode="&#x6b8;" horiz-adv-x="583" 
d="M448 1013q0 -14 -63 9l11 -349v-326q0 -200 -78 -280q-66 -67 -217 -67h-105q-36 0 -36 36v78q0 35 36 35h105q123 0 171 25q42 23 42 77q0 61 -11 223l-44 651q-1 11 22 34l91 87l60 -173q16 -49 16 -60zM141 -472l105 107l103 -107l-103 -107zM266 -256l105 107
l103 -107l-103 -106zM24 -256l105 107l102 -107l-102 -106z" />
    <glyph glyph-name="uni06B8.medi" unicode="&#x6b8;" horiz-adv-x="512" 
d="M537 36q0 -36 -18 -36h-23q-177 0 -249 118q-70 -118 -228 -118h-23q-36 0 -36 36v78q0 35 36 35h23q42 0 100 11q101 20 97 161l-23 822l99 103l19 -957q1 -66 54 -104q51 -36 131 -36h23q18 0 18 -35v-78zM132 -472l105 107l103 -107l-103 -107zM257 -256l105 107
l103 -107l-103 -106zM15 -256l104 107l103 -107l-103 -106z" />
    <glyph glyph-name="uni06B8.fina" unicode="&#x6b8;" horiz-adv-x="1228" 
d="M1251 36q0 -36 -17 -36h-24q-113 0 -189 56v-127q0 -216 -158 -338q-149 -113 -392 -113q-164 0 -259 71q-110 82 -110 251q0 110 36.5 206.5t75.5 96.5q19 0 20 -22q-2 1 -22 -57q-21 -65 -21 -147q0 -239 310 -239q165 0 304 66q143 68 143 154q0 372 -61 1285l109 103
l35 -974q2 -55 51.5 -89t127.5 -34h24q17 0 17 -35v-78zM545 -1073l-104 105l102 107l105 -107zM667 -857l-105 106l105 107l102 -107zM424 -857l-104 106l104 107l103 -107z" />
    <glyph glyph-name="uni06B9.init" unicode="&#x6b9;" horiz-adv-x="464" 
d="M363 897l-102 -106l-105 106l105 107zM382 272q0 -154 -87 -216q-78 -56 -258 -56h-41q-36 0 -36 36v78q0 35 36 35h23q284 0 284 70q0 73 -85 178l68 151q96 -135 96 -276zM337 -261l-103 -106l-105 106l105 106z" />
    <glyph glyph-name="uni06B9.medi" unicode="&#x6b9;" horiz-adv-x="621" 
d="M405 804l-102 -106l-104 106l104 106zM645 36q0 -36 -17 -36h-24q-104 0 -157 24q-62 28 -95 104q-37 -74 -123 -103q-73 -25 -210 -25h-23q-36 0 -36 36v78q0 35 36 35h139q168 0 190 204q0 26 25 26t25 -26q22 -204 189 -204h64q17 0 17 -35v-78zM402 -261l-102 -106
l-105 106l105 106z" />
    <glyph glyph-name="uni06B9.fina" unicode="&#x6b9;" horiz-adv-x="1257" 
d="M690 584l-103 -107l-105 107l105 107zM1279 36q0 -36 -17 -36h-24q-91 0 -160 21q14 -54 14 -137q0 -219 -201 -329q-163 -89 -415 -89q-144 0 -247 75q-127 91 -127 261q0 129 52 244q46 105 84 105q23 0 23 -21q0 3 -35 -76t-35 -162q0 -266 351 -266q159 0 298 50
q189 66 189 192q0 115 -147 321l76 144q56 -103 106 -143.5t122 -40.5h76q17 0 17 -35v-78zM684 -765l-103 -107l-105 107l105 106z" />
    <glyph glyph-name="uni06BC.init" unicode="&#x6bc;" horiz-adv-x="563" 
d="M294 873l-100 -104l-103 104l101 101zM174 4q-5 -1 -12 -1q-54 -70 -54 -124q0 -29 24 -47t64 -18q32 0 72 16q43 17 43 34q0 32 -57 84q-46 43 -80 56zM110 0h-105q-36 0 -36 36v78q0 35 36 35h69q284 0 284 70q0 73 -86 178l69 151q95 -135 95 -276q0 -154 -86 -216
q-27 -19 -66 -31q20 -19 33 -37q31 -44 31 -99q0 -77 -48 -121q-47 -43 -122 -43q-54 0 -87 27q-35 31 -35 83q0 83 54 165z" />
    <glyph glyph-name="uni06BC.medi" unicode="&#x6bc;" horiz-adv-x="654" 
d="M388 810l-101 -105l-103 105l101 100zM180 6q-6 -1 -11 -1q-54 -69 -54 -123q0 -30 23.5 -47.5t63.5 -17.5q32 0 72 15q43 18 43 35q0 32 -56 84q-47 44 -81 55zM116 1q-28 -1 -60 -1h-60q-36 0 -36 36v78q0 35 36 35h175q168 0 191 204q0 26 24 26q25 0 25 -26
q23 -204 189 -204h64q18 0 18 -35v-78q0 -36 -18 -36h-23q-104 0 -157 24q-63 28 -96 104q-32 -65 -103 -95q24 -22 39 -42q30 -44 30 -99q0 -77 -48 -122q-46 -42 -122 -42q-54 0 -86 27q-36 31 -36 83q0 82 54 163z" />
    <glyph glyph-name="uni06BC.fina" unicode="&#x6bc;" horiz-adv-x="1257" 
d="M690 584l-103 -107l-105 107l105 107zM557 -531q-7 -1 -13 -1q-54 -69 -54 -124q0 -29 23.5 -47t64.5 -18q31 0 72 16q42 17 42 34q0 32 -56 84q-46 43 -79 56zM493 -534h-17q-144 0 -247 75q-127 91 -127 261q0 129 52 244q46 105 84 105q23 0 23 -21q0 3 -35 -76
t-35 -162q0 -266 351 -266q159 0 298 50q189 66 189 192q0 115 -147 321l76 144q56 -103 106 -143.5t122 -40.5h76q17 0 17 -35v-78q0 -36 -17 -36h-24q-91 0 -160 21q14 -54 14 -137q0 -219 -201 -329q-94 -51 -217 -72q15 -15 25 -30q31 -43 31 -99q0 -76 -49 -121
q-46 -43 -122 -43q-53 0 -86 27q-36 31 -36 83q0 83 56 166z" />
    <glyph glyph-name="uni06BD.init" unicode="&#x6bd;" horiz-adv-x="501" 
d="M354 1036l-105 -107l-102 107l104 106zM475 819l-102 -107l-105 107l105 107zM232 819l-103 -107l-103 107l103 107zM382 272q0 -154 -87 -216q-78 -56 -258 -56h-41q-36 0 -36 36v78q0 35 36 35h23q284 0 284 70q0 73 -85 178l68 151q96 -135 96 -276z" />
    <glyph glyph-name="uni06BD.medi" unicode="&#x6bd;" horiz-adv-x="621" 
d="M366 897l-104 -106l-102 106l104 107zM488 681l-103 -106l-104 106l104 106zM245 681l-102 -106l-105 106l105 106zM645 36q0 -36 -17 -36h-24q-104 0 -157 24q-62 28 -95 104q-37 -74 -123 -103q-73 -25 -210 -25h-23q-36 0 -36 36v78q0 35 36 35h139q168 0 190 204
q0 26 25 26t25 -26q22 -204 189 -204h64q17 0 17 -35v-78z" />
    <glyph glyph-name="uni06BD.fina" unicode="&#x6bd;" horiz-adv-x="1257" 
d="M1279 36q0 -36 -17 -36h-24q-91 0 -160 21q14 -54 14 -137q0 -219 -201 -329q-163 -89 -415 -89q-144 0 -247 75q-127 91 -127 261q0 129 52 244q46 105 84 105q23 0 23 -21q0 3 -35 -76t-35 -162q0 -266 351 -266q159 0 298 50q189 66 189 192q0 115 -147 321l76 144
q56 -103 106 -143.5t122 -40.5h76q17 0 17 -35v-78zM691 793l-104 -107l-102 107l103 105zM813 576l-102 -107l-105 107l105 106zM570 576l-103 -107l-104 107l104 106z" />
    <glyph glyph-name="uni06BF.init" unicode="&#x6bf;" horiz-adv-x="1132" 
d="M674 998l-102 -106l-105 106l105 106zM1081 424l-69 -137h-67q-86 0 -149 -21q-76 -25 -268 -124q-276 -142 -491 -142h-41q-36 0 -36 36v78q0 35 36 35h23q78 0 228 27q129 22 450 167v10q-311 128 -399 128q-63 0 -110.5 -43.5t-54.5 -43.5q-14 0 -14 19q0 60 57 134
q66 83 146 83q83 0 386 -132q160 -70 373 -74zM320 -256l105 107l103 -107l-103 -106zM437 -472l105 107l103 -107l-103 -107zM562 -256l105 107l103 -107l-103 -106z" />
    <glyph glyph-name="uni06BF.medi" unicode="&#x6bf;" horiz-adv-x="1137" 
d="M708 998l-102 -106l-105 106l105 106zM1162 36q0 -36 -18 -36h-23q-308 0 -308 215q0 72 9 111q-89 -34 -336 -186q-228 -140 -467 -140h-23q-36 0 -36 36v78q0 35 36 35h23q168 0 349 71q109 42 324 159v9q-346 93 -406 93q-62 0 -109.5 -43.5t-54.5 -43.5q-14 0 -14 19
q0 60 57 134q66 83 146 83q74 0 178 -35q164 -57 204 -67q142 -35 306 -35h90l-60 -144q-60 11 -151 -6l-2 -54q-5 -140 205 -140h63q18 0 18 -35v-78zM376 -256l104 107l103 -107l-103 -106zM494 -472l104 107l103 -107l-103 -107zM619 -256l104 107l102 -107l-102 -106z
" />
    <glyph glyph-name="uni06BF.fina" unicode="&#x6bf;" horiz-adv-x="1154" 
d="M1177 36q0 -36 -17 -36h-80q-168 0 -237 59q-63 55 -63 180q0 47 9 112q-227 -56 -378 -159q-201 -136 -201 -322q0 -312 532 -312q108 0 246 26q128 22 123 24q6 -1 6 -9q0 -35 -113 -101q-144 -84 -329 -84q-557 0 -554 407q2 386 504 573v9q-206 30 -316 30
q-63 0 -110 -45t-54 -45q-15 0 -15 19q0 61 58 135q66 85 146 85q84 0 269 -34q189 -33 269 -35l194 -4l-61 -142l-160 -7q-5 -30 -5 -56q0 -91 61 -125q55 -30 195 -30h64q17 0 17 -35v-78zM714 968l-102 -106l-105 106l105 107zM326 -11l104 106l103 -106l-103 -107z
M443 -228l105 107l103 -107l-103 -106zM569 -11l104 106l103 -106l-103 -107z" />
    <glyph glyph-name="uni06C2.fina" unicode="&#x6c2;" horiz-adv-x="721" 
d="M727 149q17 0 17 -35v-78q0 -36 -17 -36h-39q-46 0 -79.5 13t-59.5 40t-46.5 69.5t-39.5 100.5q-5 12 -9.5 23.5t-10.5 20.5t-13.5 14.5t-17.5 5.5q-22 0 -57.5 -14.5t-77 -40.5t-84 -62.5t-76.5 -79.5q-5 -5 -10 -9t-10 -4q-6 0 -6 19q0 4 2.5 15t7.5 24.5t10.5 28
t10.5 26.5q15 41 49.5 83t93.5 87q29 22 58.5 39t55.5 29.5t47 19t34 6.5q12 0 22.5 -10.5t17.5 -31.5l38 -117q15 -44 32 -72t38.5 -44.5t51 -23t67.5 -6.5zM557 860l-33 -95q-38 -4 -114 -24q-149 -40 -196 -105q-9 19 -9 41q0 56 70 96q-50 33 -50 94q0 60 59.5 118
t127.5 58q94 0 94 -82q0 -17 -12 -30q-35 32 -97 32q-108 0 -108 -55q0 -32 33.5 -59.5t64.5 -27.5q86 0 170 39z" />
    <glyph glyph-name="uni06C3.fina" unicode="&#x6c3;" horiz-adv-x="721" 
d="M727 149q17 0 17 -35v-78q0 -36 -17 -36h-39q-46 0 -79.5 13t-59.5 40t-46.5 69.5t-39.5 100.5q-5 12 -9.5 23.5t-10.5 20.5t-13.5 14.5t-17.5 5.5q-22 0 -57.5 -14.5t-77 -40.5t-84 -62.5t-76.5 -79.5q-5 -5 -10 -9t-10 -4q-6 0 -6 19q0 4 2.5 15t7.5 24.5t10.5 28
t10.5 26.5q15 41 49.5 83t93.5 87q29 22 58.5 39t55.5 29.5t47 19t34 6.5q12 0 22.5 -10.5t17.5 -31.5l38 -117q15 -44 32 -72t38.5 -44.5t51 -23t67.5 -6.5zM613 785l-101 -104l-103 104l101 101zM370 785l-100 -104l-103 104l101 101z" />
    <glyph glyph-name="uni06C4.fina" unicode="&#x6c4;" horiz-adv-x="727" 
d="M502 149q-5 71 -48 137q-49 72 -105 72q-47 0 -79.5 -33t-32.5 -81q0 -95 158 -95h107zM264 -350q53 37 100 81q30 28 54 59q-66 56 -122 58q-29 2 -47.5 -21.5t-20.5 -63.5q-2 -32 13 -72q10 -32 23 -41zM443 -179q24 33 43 69q34 64 34 99v16q-42 -5 -126 -5
q-129 0 -182 38.5t-53 129.5q0 112 54 217q64 122 154 122q95 0 156 -110q53 -95 68 -248h142q17 0 17 -35v-78q0 -36 -17 -36h-144q0 -144 -112 -328q-70 -117 -117 -151q-37 -27 -100 -27q-73 0 -163 9q-97 11 -97 21q0 11 28 19q106 29 195 82q-26 13 -46 36
q-41 48 -38 124q2 54 30 86q33 34 85 32q97 -4 189 -82z" />
    <glyph glyph-name="uni06CA.fina" unicode="&#x6ca;" horiz-adv-x="727" 
d="M750 36q0 -36 -17 -36h-144q0 -144 -112 -328q-70 -117 -117 -151q-37 -27 -100 -27q-73 0 -163 9q-97 11 -97 21q0 11 28 19q196 54 336 188q78 75 122 159q34 64 34 99v16q-42 -5 -126 -5q-129 0 -182 38.5t-53 129.5q0 112 54 217q64 122 154 122q95 0 156 -110
q53 -95 68 -248h142q17 0 17 -35v-78zM502 149q-5 71 -48 137q-49 72 -105 72q-47 0 -79.5 -33t-32.5 -81q0 -95 158 -95h107zM594 750l-102 -107l-105 107l105 106zM352 750l-103 -107l-104 107l104 106z" />
    <glyph glyph-name="uni06CD.fina" unicode="&#x6cd;" horiz-adv-x="1533" 
d="M401 81q10 6 19 6q23 0 23 -20q0 2 -34.5 -76.5t-34.5 -161.5q0 -155 116 -220q102 -57 320 -57q202 0 350 45q135 42 134 90q-1 20 -106 35q-145 22 -194 38q-104 34 -104 98q0 84 82 168q79 83 174 102q99 21 365 21h25q16 0 16 -35v-78q0 -36 -16 -36h-125
q-431 0 -431 -82q0 -32 186 -56q139 -18 175 -41q32 -21 31 -82q-9 -336 -664 -336q-181 0 -293 76q-131 87 -131 260q0 59 11 116q-24 -15 -53 -21q-57 -12 -97 18q-35 23 -45 69q-7 29 8 48q49 -41 123 -25q61 11 92 42q17 16 31 36q21 37 40 54q3 3 7 5z" />
    <glyph glyph-name="uni06CE.init" unicode="&#x6ce;" horiz-adv-x="501" 
d="M382 272q0 -154 -87 -216q-78 -56 -258 -56h-41q-36 0 -36 36v78q0 35 36 35h23q284 0 284 70q0 73 -85 178l68 151q96 -135 96 -276zM475 -263l-100 -104l-103 104l101 101zM232 -263l-101 -104l-102 104l100 101zM201 727l-166 221h46l161 -136l162 136h46l-167 -221
h-82z" />
    <glyph glyph-name="uni06CE.medi" unicode="&#x6ce;" horiz-adv-x="621" 
d="M645 36q0 -36 -17 -36h-24q-104 0 -157 24q-62 28 -95 104q-37 -74 -123 -103q-73 -25 -210 -25h-23q-36 0 -36 36v78q0 35 36 35h139q168 0 190 204q0 26 25 26t25 -26q22 -204 189 -204h64q17 0 17 -35v-78zM518 -263l-102 -104l-102 104l101 101zM275 -263l-101 -104
l-103 104l101 101zM293 582l-166 222h46l161 -137l162 137h46l-167 -222h-82z" />
    <glyph glyph-name="uni06CE.fina" unicode="&#x6ce;" horiz-adv-x="1348" 
d="M1370 36q0 -36 -16 -36h-125q-431 0 -431 -82q0 -32 186 -56q138 -18 175 -41q32 -21 31 -82q-9 -336 -664 -336q-182 0 -294 76q-130 87 -130 260q0 128 52 245q46 103 84 103q23 0 23 -20q0 2 -35 -76.5t-35 -161.5q0 -155 117 -220q102 -57 320 -57q202 0 350 45
q134 42 133 90q0 20 -105 35q-145 22 -194 38q-104 34 -104 98q0 84 82 168q79 83 174 102q98 21 365 21h25q16 0 16 -35v-78zM548 358l-165 221h46l161 -136l162 136h46l-167 -221h-83z" />
    <glyph glyph-name="uni06CF.fina" unicode="&#x6cf;" horiz-adv-x="727" 
d="M750 36q0 -36 -17 -36h-144q0 -144 -112 -328q-70 -117 -117 -151q-37 -27 -100 -27q-73 0 -163 9q-97 11 -97 21q0 11 28 19q196 54 336 188q78 75 122 159q34 64 34 99v16q-42 -5 -126 -5q-129 0 -182 38.5t-53 129.5q0 112 54 217q64 122 154 122q95 0 156 -110
q53 -95 68 -248h142q17 0 17 -35v-78zM502 149q-5 71 -48 137q-49 72 -105 72q-47 0 -79.5 -33t-32.5 -81q0 -95 158 -95h107zM467 756l-104 -106l-102 106l103 106z" />
    <glyph glyph-name="uni06D1.init" unicode="&#x6d1;" horiz-adv-x="523" 
d="M47 -256l105 107l103 -107l-103 -106zM165 -472l105 107l102 -107l-102 -107zM290 -256l104 107l103 -107l-103 -106zM286 548q46 -65 71 -133t25 -143q0 -79 -22 -132t-65 -83.5t-108 -43.5t-151 -13h-41q-17 0 -17 36v78q0 35 17 35h24q25 0 56 1t62 3.5t61.5 7
t53.5 12t37 18.5t14 28q0 41 -21.5 83.5t-63.5 94.5z" />
    <glyph glyph-name="uni06D1.medi" unicode="&#x6d1;" horiz-adv-x="621" 
d="M65 -256l105 107l103 -107l-103 -106zM183 -472l105 107l103 -107l-103 -107zM308 -256l105 107l103 -107l-103 -106zM645 36q0 -36 -17 -36h-24q-48 0 -87 5t-70 19t-54.5 39t-40.5 65q-20 -40 -51 -64.5t-72.5 -39t-94 -19.5t-115.5 -5h-24q-17 0 -17 36v78q0 35 17 35
h140q32 0 63 9.5t56.5 32t44.5 62t26 100.5q0 11 7.5 18.5t17.5 7.5t17 -7.5t7 -18.5q7 -61 25.5 -100.5t44.5 -62t57 -32t63 -9.5h64q17 0 17 -35v-78z" />
    <glyph glyph-name="uni06D1.fina" unicode="&#x6d1;" horiz-adv-x="1348" 
d="M1370 36q0 -36 -16 -36h-125q-431 0 -431 -82q0 -32 186 -56q138 -18 175 -41q32 -21 31 -82q-9 -336 -664 -336q-182 0 -294 76q-130 87 -130 260q0 128 52 245q46 103 84 103q23 0 23 -20q0 2 -35 -76.5t-35 -161.5q0 -155 117 -220q102 -57 320 -57q202 0 350 45
q134 42 133 90q0 20 -105 35q-145 22 -194 38q-104 34 -104 98q0 84 82 168q79 83 174 102q98 21 365 21h25q16 0 16 -35v-78zM464 -821l104 107l103 -107l-103 -106zM581 -1009l105 106l103 -106l-103 -107zM706 -821l105 107l103 -107l-103 -106z" />
    <glyph glyph-name="uni06D5.fina" unicode="&#x6d5;" horiz-adv-x="776" 
d="M798 36q0 -36 -17 -36h-25q-108 0 -157 55q-38 42 -61 155l-110 -98q-43 -4 -105 -4q-221 0 -221 107q0 56 30.5 124t73.5 99q104 76 249 144l-29 121l82 96l103 -487q20 -95 51 -131q29 -32 83 -32h36q17 0 17 -35v-78zM526 256l-51 220q-132 -39 -223 -100
q-72 -48 -72 -66q0 -66 216 -66q81 0 130 12z" />
    <glyph glyph-name="uni06EE.fina" unicode="&#x6ee;" horiz-adv-x="956" 
d="M979 36q0 -36 -16 -36h-25q-74 0 -122 36q-44 31 -105 128q-34 -94 -126 -131q-78 -33 -225 -33q-248 0 -248 196q0 71 20 117q17 40 36 40t19 -25q0 -6 -4 -31.5t-4 -36.5q0 -111 200 -111q296 0 296 114q0 30 -79.5 224t-80.5 211l74 132q59 -175 198 -550
q47 -116 123 -131h53q16 0 16 -35v-78zM537 1225l166 -221h-46l-161 137l-162 -137h-46l166 221h83z" />
    <glyph glyph-name="uni06EF.fina" unicode="&#x6ef;" horiz-adv-x="730" 
d="M753 36q0 -36 -16 -36h-25q-59 0 -130 30q7 -35 6 -86q-5 -149 -113 -312q-103 -154 -176 -154q-299 0 -299 25q0 11 62 27q135 34 283 162q172 149 172 271q0 99 -129 213l69 141q43 -56 88 -98q31 -30 81 -51q45 -19 70 -19h41q16 0 16 -35v-78zM431 838l167 -221h-47
l-161 136l-161 -136h-47l166 221h83z" />
    <glyph glyph-name="uni06FA.init" unicode="&#x6fa;" horiz-adv-x="1175" 
d="M781 1009l-105 -106l-102 106l104 107zM902 793l-102 -106l-105 106l105 106zM660 793l-103 -106l-104 106l104 106zM1092 272q0 -124 -60 -195q-64 -77 -189 -77q-114 0 -172 119q-70 -119 -205 -119q-91 0 -166 119q-90 -119 -281 -119h-23q-36 0 -36 36v78q0 35 36 35
h50q227 0 227 179q0 26 25 26q24 0 24 -26q0 -179 164 -179q163 0 163 179q0 26 23 26q25 0 25 -26q0 -67 28 -115q38 -64 112 -64q76 0 129 23q48 21 48 47q0 79 -86 178l70 151q94 -135 94 -276zM775 -261l-102 -106l-104 106l104 106z" />
    <glyph glyph-name="uni06FA.medi" unicode="&#x6fa;" horiz-adv-x="1238" 
d="M786 897l-104 -106l-102 106l104 107zM907 681l-102 -106l-104 106l104 106zM665 681l-103 -106l-104 106l104 106zM1262 36q0 -36 -17 -36h-24q-135 0 -205 114q-74 -114 -173 -114q-114 0 -172 119q-70 -119 -205 -119q-91 0 -166 119q-90 -119 -283 -119h-21
q-36 0 -36 36v78q0 35 36 35h50q227 0 227 179q0 26 25 26q24 0 24 -26q0 -179 164 -179q163 0 163 179q0 26 23 26q25 0 25 -26q0 -67 28 -115q38 -64 112 -64q159 0 159 179q0 26 24 26t24 -26q0 -179 179 -179h22q17 0 17 -35v-78zM775 -261l-102 -106l-104 106l104 106z
" />
    <glyph glyph-name="uni06FA.fina" unicode="&#x6fa;" horiz-adv-x="1925" 
d="M1468 897l-105 -106l-103 106l105 107zM1589 681l-103 -106l-104 106l104 106zM1346 681l-102 -106l-105 106l105 106zM1947 36q0 -36 -17 -36h-24q-135 0 -205 114q-74 -114 -174 -114q-113 0 -171 119q-70 -119 -205 -119q-48 0 -77 13q4 -34 4 -102q0 -253 -230 -367
q-156 -78 -372 -78q-144 0 -247 75q-127 91 -127 261q0 129 52 244q46 105 84 105q23 0 23 -21q0 3 -35 -76t-35 -162q0 -266 351 -266q146 0 289 55q183 69 183 187q0 69 -28 132q-30 67 -120 189l77 144q55 -103 105.5 -143.5t122.5 -40.5q162 0 162 179q0 26 24 26
q25 0 25 -26q0 -67 28 -115q38 -64 111 -64q159 0 159 179q0 26 25 26q23 0 23 -26q0 -179 178 -179h24q17 0 17 -35v-78zM1466 -261l-102 -106l-105 106l105 106z" />
    <glyph glyph-name="uni06FB.init" unicode="&#x6fb;" horiz-adv-x="1337" 
d="M964 935l-103 -107l-105 107l105 106zM1255 347q0 -181 -200 -272q-164 -75 -418 -75q-171 0 -236 23t-101 96q-90 -119 -281 -119h-23q-36 0 -36 36v78q0 35 36 35h50q227 0 227 179q0 26 25 26q26 0 24 -26q-3 -71 34 -119q34 -45 85 -52q236 230 346 304
q131 89 261 89q92 0 149.5 -55.5t57.5 -147.5zM1165 285q0 48 -57.5 89t-134.5 41q-116 0 -302 -148q-123 -98 -123 -107q0 -11 67 -11q550 0 550 136zM967 -261l-102 -106l-105 106l105 106z" />
    <glyph glyph-name="uni06FB.medi" unicode="&#x6fb;" horiz-adv-x="1346" 
d="M964 935l-103 -107l-105 107l105 106zM1370 36q0 -36 -16 -36h-25q-124 0 -231 21q-88 16 -134 16q-7 0 -114 -18.5t-213 -18.5q-171 0 -236 23t-101 96q-90 -119 -281 -119h-23q-36 0 -36 36v78q0 35 36 35h50q227 0 227 179q0 26 25 26q26 0 24 -26q-3 -71 34 -119
q34 -45 85 -52q236 230 346 304q131 89 261 89q92 0 149.5 -55.5t57.5 -147.5q0 -86 -92 -205q38 7 82 7h109q16 0 16 -35v-78zM1165 285q0 48 -57.5 89t-134.5 41q-116 0 -302 -148q-123 -98 -123 -107q0 -11 67 -11q550 0 550 136zM967 -261l-102 -106l-105 106l105 106z
" />
    <glyph glyph-name="uni06FB.fina" unicode="&#x6fb;" horiz-adv-x="1979" 
d="M1607 935l-102 -107l-105 107l105 106zM2002 36q0 -36 -18 -36h-24q-123 0 -232 21q-87 16 -134 16q-7 0 -114 -18.5t-212 -18.5q-112 0 -194 34q4 -41 4 -123q0 -253 -230 -367q-156 -78 -372 -78q-144 0 -247 75q-127 91 -127 261q0 129 52 244q46 105 84 105
q23 0 23 -21q0 3 -35 -76t-35 -162q0 -266 351 -266q146 0 289 55q183 69 183 187q0 117 -148 321l77 144q53 -85 147 -143q201 196 334.5 278t253.5 82q92 0 150 -55.5t58 -147.5q0 -86 -92 -205q37 7 82 7h108q18 0 18 -35v-78zM1796 285q0 48 -57 88q-59 42 -136 42
q-115 0 -301 -148q-124 -98 -124 -107q0 -11 67 -11q551 0 551 136zM1612 -261l-102 -106l-105 106l105 106z" />
    <glyph glyph-name="uni06FC.init" unicode="&#x6fc;" horiz-adv-x="828" 
d="M777 297l-52 -138q-466 -159 -706 -159h-23q-36 0 -36 36v78q0 35 36 35h23q59 0 210 17v10q-109 65 -109 180q0 106 99 216q107 120 239 120q73 0 144.5 -60.5t71.5 -122.5q0 -4 -5 -4l-75 22q-75 21 -141 21q-75 0 -145 -32q-83 -40 -83 -98q0 -62 89 -133
q85 -66 144 -66q87 0 319 78zM519 1060l-102 -106l-104 106l104 106zM520 -261l-102 -106l-105 106l105 106z" />
    <glyph glyph-name="uni06FC.medi" unicode="&#x6fc;" horiz-adv-x="719" 
d="M475 935l-102 -107l-105 107l105 106zM743 36q0 -36 -16 -36h-25q-184 0 -313 123q-138 -123 -370 -123h-23q-36 0 -36 36v78q0 35 36 35h23q89 0 192 25.5t103 47.5q0 42 -117 123q-12 8 -37 17q0 72 50 116q58 52 170 52q214 -2 214 -133q0 -37 -59.5 -103t-59.5 -75
q0 -21 83 -47q73 -23 105 -23h64q16 0 16 -35v-78zM475 -261l-102 -106l-105 106l105 106z" />
    <glyph glyph-name="uni06FC.fina" unicode="&#x6fc;" horiz-adv-x="1085" 
d="M1108 36q0 -36 -18 -36h-24q-205 0 -335 64q-95 47 -210 167q-330 -153 -330 -361q0 -165 151 -246q124 -66 325 -66q136 0 257 25q111 22 111 23q7 0 7 -5q0 -40 -115 -106q-143 -81 -328 -81q-225 0 -352 91q-145 103 -145 316q0 135 89 256q63 82 168 155q90 63 90 61
q0 30 -117 111q-13 10 -38 18q-2 62 42 105q58 55 178 55q245 0 245 -130q0 -72 -139 -172q153 -131 424 -131h46q18 0 18 -35v-78zM633 987l-102 -106l-105 106l105 106zM635 -97l-103 -106l-105 106l105 106z" />
    <glyph glyph-name="uni06FF.init" unicode="&#x6ff;" horiz-adv-x="961" 
d="M878 287q0 -90 -52 -174q-54 -87 -122 -87q-92 0 -290 86q-75 -51 -203 -84q-111 -28 -192 -28h-23q-36 0 -36 36v78q0 35 36 35h23q121 0 243 29q-92 58 -92 148q0 161 184 262q-61 32 -102 46l114 119l162 -89q162 -91 255 -189q95 -101 95 -188zM815 228
q0 109 -207 228v-52q0 -42 -27 -104t-60 -90q130 -48 192 -48q102 0 102 66zM529 390q0 72 -51 134q-108 -2 -166 -49q-51 -40 -51 -100q0 -40 30 -64t123 -63q115 54 115 142zM399 1183l167 -222h-47l-161 137l-161 -137h-47l166 222h83z" />
    <glyph glyph-name="uni06FF.medi" unicode="&#x6ff;" horiz-adv-x="822" 
d="M829 149q17 0 17 -35v-78q0 -36 -17 -36q-49 0 -96 0.5t-95 4.5q29 -44 41.5 -86.5t12.5 -87.5q0 -51 -15 -97t-40 -80t-56.5 -54t-64.5 -20q-24 0 -56 12.5t-65.5 33.5t-65.5 50.5t-57 63.5q-44 64 -70.5 129.5t-34.5 130.5v7q-45 -4 -89 -5.5t-83 -1.5q-17 0 -17 36v78
q0 35 17 35h164q11 173 61 306.5t141 236.5q170 -241 170 -416q0 -83 -31 -139q54 7 117 9.5t139 2.5h73zM612 -211q0 29 -17.5 66t-58.5 86q-43 44 -88 63t-106 19q-27 0 -50.5 -2t-45.5 -6q20 -88 88 -170q63 -66 118 -99t99 -33q26 0 43.5 20t17.5 56zM467 231
q0 87 -126 271q-118 -141 -118 -308v-45q58 6 107.5 14.5t75.5 17.5q61 22 61 50zM399 1183l167 -222h-47l-161 137l-161 -137h-47l166 222h83z" />
    <glyph glyph-name="uni06FF.fina" unicode="&#x6ff;" horiz-adv-x="1003" 
d="M1008 149q18 0 18 -35v-78q0 -36 -18 -36q-49 0 -96 0.5t-94 4.5q28 -44 41 -86.5t13 -87.5q0 -51 -15 -97t-40 -80t-56.5 -54t-64.5 -20q-25 0 -56.5 12.5t-65.5 33.5t-66 50.5t-56 63.5q-45 64 -71.5 129.5t-33.5 130.5q-71 -15 -137.5 -49t-114.5 -97q-5 -5 -8.5 -8
t-8.5 -3t-6 5.5t-1 14.5t8.5 34.5t24 56.5t37 61.5t47.5 48.5q25 21 62 38.5t88 35.5l1 11q19 334 201 543q171 -241 171 -416q0 -83 -31 -139q53 7 116.5 9.5t139.5 2.5h72zM792 -211q0 29 -17.5 66t-58.5 86q-44 44 -88.5 63t-106.5 19q-26 0 -50 -2t-46 -6
q20 -88 89 -170q63 -66 118 -99t99 -33q26 0 43.5 20t17.5 56zM647 231q0 87 -127 271q-117 -141 -117 -308v-45l72 11q30 5 57 8.5t54 12.5q61 22 61 50zM571 1183l167 -222h-47l-161 137l-161 -137h-47l166 222h83z" />
    <glyph glyph-name="uniFB50" unicode="&#x671;" horiz-adv-x="414" arabic-form="isolated" 
d="M407 1511q0 -68 -48 -126q-56 -66 -139 -66q-25 0 -74 10t-69 10q-24 0 -49 -18.5t-31 -42.5q-17 8 -17 30q0 44 29.5 86.5t66.5 40.5l35 -2q130 164 211 164q85 0 85 -86zM286 222q2 -86 -26 -180q-26 -83 -40 -83q-8 0 -20 187l-59 979l125 121zM355 1465
q0 17 -22.5 34.5t-44.5 17.5q-31 0 -71.5 -29t-62.5 -62q34 -16 87 -16q49 0 81.5 17.5t32.5 37.5z" />
    <glyph glyph-name="uniFB51" unicode="&#x671;" horiz-adv-x="486" arabic-form="final" 
d="M407 1511q0 -68 -48 -126q-56 -66 -139 -66q-25 0 -74 10t-69 10q-24 0 -49 -18.5t-31 -42.5q-17 8 -17 30q0 44 29.5 86.5t66.5 40.5l35 -2q130 164 211 164q85 0 85 -86zM510 36q0 -36 -16 -36h-32q-123 0 -198 61q-79 65 -80 183q-5 493 -43 899l108 103
q23 -273 26 -966q0 -66 65 -103q48 -28 96 -28h58q16 0 16 -35v-78zM355 1465q0 17 -22.5 34.5t-44.5 17.5q-31 0 -71.5 -29t-62.5 -62q34 -16 87 -16q49 0 81.5 17.5t32.5 37.5z" />
    <glyph glyph-name="uniFB52" unicode="&#x67b;" horiz-adv-x="1447" arabic-form="isolated" 
d="M741 -329l-107 105l107 103l105 -103zM1269 532q25 -29 43 -56.5t29.5 -57.5t17 -66.5t5.5 -84.5q0 -32 -10 -65t-30 -62.5t-50.5 -52.5t-71.5 -37q-60 -19 -124.5 -31t-141 -19t-167 -10t-201.5 -3q-226 0 -341 67.5t-115 214.5q0 44 10.5 85.5t25 73.5t29.5 51t24 19
q12 0 19.5 -6t7.5 -18q0 -7 -6 -18t-13 -27.5t-13 -38.5t-6 -48q0 -40 17 -76.5t67.5 -65.5t144 -46t245.5 -17q78 0 154 2.5t145 8t128 14t102 20t67.5 26.5t24.5 34q0 9 -3 20t-12.5 27.5t-26.5 39.5t-43 55zM741 -571l-107 105l107 102l105 -102z" />
    <glyph glyph-name="uniFB53" unicode="&#x67b;" horiz-adv-x="1499" arabic-form="final" 
d="M741 -329l-107 105l107 103l105 -103zM1522 36q0 -18 -3 -27t-13 -9h-32q-39 0 -74 10.5t-63.5 33t-48 56.5t-27.5 81q-68 -63 -155.5 -101.5t-182 -59t-187 -27t-168.5 -6.5q-226 0 -341 67.5t-115 214.5q0 44 10.5 85.5t25 73.5t29.5 51t24 19q12 0 19.5 -6t7.5 -18
q0 -7 -6 -18t-13 -27.5t-13 -38.5t-6 -48q0 -40 19.5 -76.5t66.5 -65.5t127.5 -46t203.5 -17q150 0 261.5 17.5t189 44t123.5 57t65 56.5q20 26 34.5 43.5t25.5 27.5t18.5 14t12.5 4q10 0 17.5 -6t7.5 -20q0 -8 -3.5 -21.5t-8 -29.5t-8 -33t-3.5 -33q0 -48 37.5 -78.5
t104.5 -30.5h25q10 0 13 -8.5t3 -26.5v-78zM741 -571l-107 105l107 102l105 -102z" />
    <glyph glyph-name="uniFB54" unicode="&#x67b;" horiz-adv-x="523" arabic-form="initial" 
d="M165 -472l105 107l102 -107l-102 -107zM273 -329l-106 105l106 103l106 -103zM286 548q46 -65 71 -133t25 -143q0 -79 -22 -132t-65 -83.5t-108 -43.5t-151 -13h-41q-17 0 -17 36v78q0 35 17 35h24q25 0 56 1t62 3.5t61.5 7t53.5 12t37 18.5t14 28q0 41 -21.5 83.5
t-63.5 94.5z" />
    <glyph glyph-name="uniFB55" unicode="&#x67b;" horiz-adv-x="621" arabic-form="medial" 
d="M183 -472l105 107l103 -107l-103 -107zM291 -329l-106 105l106 103l106 -103zM645 36q0 -36 -17 -36h-24q-48 0 -87 5t-70 19t-54.5 39t-40.5 65q-20 -40 -51 -64.5t-72.5 -39t-94 -19.5t-115.5 -5h-24q-17 0 -17 36v78q0 35 17 35h140q32 0 63 9.5t56.5 32t44.5 62
t26 100.5q0 11 7.5 18.5t17.5 7.5t17 -7.5t7 -18.5q7 -61 25.5 -100.5t44.5 -62t57 -32t63 -9.5h64q17 0 17 -35v-78z" />
    <glyph glyph-name="uniFB56" unicode="&#x67e;" horiz-adv-x="1447" arabic-form="isolated" 
d="M632 -472l105 107l103 -107l-103 -107zM757 -256l105 107l103 -107l-103 -106zM1269 532q25 -29 43 -56.5t29.5 -57.5t17 -66.5t5.5 -84.5q0 -32 -10 -65t-30 -62.5t-50.5 -52.5t-71.5 -37q-60 -19 -124.5 -31t-141 -19t-167 -10t-201.5 -3q-226 0 -341 67.5t-115 214.5
q0 44 10.5 85.5t25 73.5t29.5 51t24 19q12 0 19.5 -6t7.5 -18q0 -7 -6 -18t-13 -27.5t-13 -38.5t-6 -48q0 -40 17 -76.5t67.5 -65.5t144 -46t245.5 -17q78 0 154 2.5t145 8t128 14t102 20t67.5 26.5t24.5 34q0 9 -3 20t-12.5 27.5t-26.5 39.5t-43 55zM515 -256l104 107
l103 -107l-103 -106z" />
    <glyph glyph-name="uniFB57" unicode="&#x67e;" horiz-adv-x="1499" arabic-form="final" 
d="M632 -472l105 107l103 -107l-103 -107zM757 -256l105 107l103 -107l-103 -106zM1522 36q0 -18 -3 -27t-13 -9h-32q-39 0 -74 10.5t-63.5 33t-48 56.5t-27.5 81q-68 -63 -155.5 -101.5t-182 -59t-187 -27t-168.5 -6.5q-226 0 -341 67.5t-115 214.5q0 44 10.5 85.5t25 73.5
t29.5 51t24 19q12 0 19.5 -6t7.5 -18q0 -7 -6 -18t-13 -27.5t-13 -38.5t-6 -48q0 -40 19.5 -76.5t66.5 -65.5t127.5 -46t203.5 -17q150 0 261.5 17.5t189 44t123.5 57t65 56.5q20 26 34.5 43.5t25.5 27.5t18.5 14t12.5 4q10 0 17.5 -6t7.5 -20q0 -8 -3.5 -21.5t-8 -29.5
t-8 -33t-3.5 -33q0 -48 37.5 -78.5t104.5 -30.5h25q10 0 13 -8.5t3 -26.5v-78zM515 -256l104 107l103 -107l-103 -106z" />
    <glyph glyph-name="uniFB58" unicode="&#x67e;" horiz-adv-x="523" arabic-form="initial" 
d="M47 -256l105 107l103 -107l-103 -106zM165 -472l105 107l102 -107l-102 -107zM290 -256l104 107l103 -107l-103 -106zM286 548q46 -65 71 -133t25 -143q0 -79 -22 -132t-65 -83.5t-108 -43.5t-151 -13h-41q-17 0 -17 36v78q0 35 17 35h24q25 0 56 1t62 3.5t61.5 7
t53.5 12t37 18.5t14 28q0 41 -21.5 83.5t-63.5 94.5z" />
    <glyph glyph-name="uniFB59" unicode="&#x67e;" horiz-adv-x="621" arabic-form="medial" 
d="M65 -256l105 107l103 -107l-103 -106zM183 -472l105 107l103 -107l-103 -107zM308 -256l105 107l103 -107l-103 -106zM645 36q0 -36 -17 -36h-24q-48 0 -87 5t-70 19t-54.5 39t-40.5 65q-20 -40 -51 -64.5t-72.5 -39t-94 -19.5t-115.5 -5h-24q-17 0 -17 36v78q0 35 17 35
h140q32 0 63 9.5t56.5 32t44.5 62t26 100.5q0 11 7.5 18.5t17.5 7.5t17 -7.5t7 -18.5q7 -61 25.5 -100.5t44.5 -62t57 -32t63 -9.5h64q17 0 17 -35v-78z" />
    <glyph glyph-name="uniFB5A" unicode="&#x680;" horiz-adv-x="1447" arabic-form="isolated" 
d="M760 -471l105 107l102 -107l-102 -106zM1269 532q25 -29 43 -56.5t29.5 -57.5t17 -66.5t5.5 -84.5q0 -32 -10 -65t-30 -62.5t-50.5 -52.5t-71.5 -37q-60 -19 -124.5 -31t-141 -19t-167 -10t-201.5 -3q-226 0 -341 67.5t-115 214.5q0 44 10.5 85.5t25 73.5t29.5 51t24 19
q12 0 19.5 -6t7.5 -18q0 -7 -6 -18t-13 -27.5t-13 -38.5t-6 -48q0 -40 17 -76.5t67.5 -65.5t144 -46t245.5 -17q78 0 154 2.5t145 8t128 14t102 20t67.5 26.5t24.5 34q0 9 -3 20t-12.5 27.5t-26.5 39.5t-43 55zM517 -471l105 107l103 -107l-103 -106zM757 -256l105 107
l103 -107l-103 -106zM515 -256l104 107l103 -107l-103 -106z" />
    <glyph glyph-name="uniFB5B" unicode="&#x680;" horiz-adv-x="1499" arabic-form="final" 
d="M757 -471l105 107l103 -107l-103 -106zM1522 36q0 -18 -3 -27t-13 -9h-32q-39 0 -74 10.5t-63.5 33t-48 56.5t-27.5 81q-68 -63 -155.5 -101.5t-182 -59t-187 -27t-168.5 -6.5q-226 0 -341 67.5t-115 214.5q0 44 10.5 85.5t25 73.5t29.5 51t24 19q12 0 19.5 -6t7.5 -18
q0 -7 -6 -18t-13 -27.5t-13 -38.5t-6 -48q0 -40 19.5 -76.5t66.5 -65.5t127.5 -46t203.5 -17q150 0 261.5 17.5t189 44t123.5 57t65 56.5q20 26 34.5 43.5t25.5 27.5t18.5 14t12.5 4q10 0 17.5 -6t7.5 -20q0 -8 -3.5 -21.5t-8 -29.5t-8 -33t-3.5 -33q0 -48 37.5 -78.5
t104.5 -30.5h25q10 0 13 -8.5t3 -26.5v-78zM515 -471l104 107l103 -107l-103 -106zM757 -256l105 107l103 -107l-103 -106zM515 -256l104 107l103 -107l-103 -106z" />
    <glyph glyph-name="uniFB5C" unicode="&#x680;" horiz-adv-x="523" arabic-form="initial" 
d="M45 -474l104 107l103 -107l-103 -105zM287 -474l105 107l103 -107l-103 -105zM286 548q46 -65 71 -133t25 -143q0 -79 -22 -132t-65 -83.5t-108 -43.5t-151 -13h-41q-17 0 -17 36v78q0 35 17 35h24q25 0 56 1t62 3.5t61.5 7t53.5 12t37 18.5t14 28q0 41 -21.5 83.5
t-63.5 94.5zM47 -256l105 107l103 -107l-103 -106zM290 -256l104 107l103 -107l-103 -106z" />
    <glyph glyph-name="uniFB5D" unicode="&#x680;" horiz-adv-x="621" arabic-form="medial" 
d="M65 -468l105 106l103 -106l-103 -106zM308 -468l105 106l103 -106l-103 -106zM645 36q0 -36 -17 -36h-24q-48 0 -87 5t-70 19t-54.5 39t-40.5 65q-20 -40 -51 -64.5t-72.5 -39t-94 -19.5t-115.5 -5h-24q-17 0 -17 36v78q0 35 17 35h140q32 0 63 9.5t56.5 32t44.5 62
t26 100.5q0 11 7.5 18.5t17.5 7.5t17 -7.5t7 -18.5q7 -61 25.5 -100.5t44.5 -62t57 -32t63 -9.5h64q17 0 17 -35v-78zM65 -256l105 107l103 -107l-103 -106zM308 -256l105 107l103 -107l-103 -106z" />
    <glyph glyph-name="uniFB5E" unicode="&#x67a;" horiz-adv-x="1447" arabic-form="isolated" 
d="M726 997l107 -102l-107 -105l-106 105zM726 754l107 -102l-107 -104l-106 104zM1364 267q-1 -69 -40 -128q-44 -63 -122 -89q-198 -63 -634 -63q-456 0 -456 282q0 81 36 159q31 70 53 70q27 0 27 -24q0 -2 -19 -46t-19 -86q0 -94 85 -142q112 -63 389 -63q257 0 427 24
q194 29 194 81q0 36 -85 142l69 148q53 -63 73 -114q23 -59 22 -151z" />
    <glyph glyph-name="uniFB5F" unicode="&#x67a;" horiz-adv-x="1499" arabic-form="final" 
d="M740 998l106 -103l-106 -105l-106 105zM740 755l106 -103l-106 -104l-106 104zM1522 36q0 -36 -16 -36h-32q-180 0 -213 181q-204 -194 -693 -194q-456 0 -456 282q0 81 36 159q31 70 53 70q27 0 27 -24q0 -2 -19 -46t-19 -86q0 -205 417 -205q268 0 451 62
q138 47 188 113q69 89 91 89q25 0 25 -26q0 -9 -11.5 -51t-11.5 -66q0 -109 142 -109h25q16 0 16 -35v-78z" />
    <glyph glyph-name="uniFB60" unicode="&#x67a;" horiz-adv-x="501" arabic-form="initial" 
d="M251 1135l106 -102l-106 -105l-107 105zM251 893l106 -103l-106 -104l-107 104zM382 272q0 -154 -87 -216q-78 -56 -258 -56h-41q-36 0 -36 36v78q0 35 36 35h23q284 0 284 70q0 73 -85 178l68 151q96 -135 96 -276z" />
    <glyph glyph-name="uniFB61" unicode="&#x67a;" horiz-adv-x="621" arabic-form="medial" 
d="M263 998l107 -103l-107 -105l-105 105zM263 754l107 -102l-107 -104l-105 104zM645 36q0 -36 -17 -36h-24q-104 0 -157 24q-62 28 -95 104q-37 -74 -123 -103q-73 -25 -210 -25h-23q-36 0 -36 36v78q0 35 36 35h139q168 0 190 204q0 26 25 26t25 -26q22 -204 189 -204h64
q17 0 17 -35v-78z" />
    <glyph glyph-name="uniFB62" unicode="&#x67f;" horiz-adv-x="1447" arabic-form="isolated" 
d="M951 912l-102 -107l-105 107l105 106zM709 912l-102 -107l-105 107l105 106zM1364 267q-1 -69 -40 -128q-44 -63 -122 -89q-198 -63 -634 -63q-456 0 -456 282q0 81 36 159q31 70 53 70q27 0 27 -24q0 -2 -19 -46t-19 -86q0 -94 85 -142q112 -63 389 -63q257 0 427 24
q194 29 194 81q0 36 -85 142l69 148q53 -63 73 -114q23 -59 22 -151zM951 681l-102 -106l-105 106l105 106zM709 681l-102 -106l-105 106l105 106z" />
    <glyph glyph-name="uniFB63" unicode="&#x67f;" horiz-adv-x="1499" arabic-form="final" 
d="M962 898l-103 -106l-105 106l105 106zM720 898l-103 -106l-105 106l105 106zM1522 36q0 -36 -16 -36h-32q-180 0 -213 181q-204 -194 -693 -194q-456 0 -456 282q0 81 36 159q31 70 53 70q27 0 27 -24q0 -2 -19 -46t-19 -86q0 -205 417 -205q268 0 451 62q138 47 188 113
q69 89 91 89q25 0 25 -26q0 -9 -11.5 -51t-11.5 -66q0 -109 142 -109h25q16 0 16 -35v-78zM965 681l-103 -106l-105 106l105 106zM722 681l-103 -106l-104 106l104 106z" />
    <glyph glyph-name="uniFB64" unicode="&#x67f;" horiz-adv-x="501" arabic-form="initial" 
d="M475 1034l-102 -107l-105 107l105 107zM232 1034l-103 -107l-103 107l103 107zM382 272q0 -154 -87 -216q-78 -56 -258 -56h-41q-36 0 -36 36v78q0 35 36 35h23q284 0 284 70q0 73 -85 178l68 151q96 -135 96 -276zM475 819l-102 -107l-105 107l105 107zM232 819
l-103 -107l-103 107l103 107z" />
    <glyph glyph-name="uniFB65" unicode="&#x67f;" horiz-adv-x="621" arabic-form="medial" 
d="M486 893l-103 -107l-105 107l105 105zM242 893l-102 -107l-104 107l104 105zM645 36q0 -36 -17 -36h-24q-104 0 -157 24q-62 28 -95 104q-37 -74 -123 -103q-73 -25 -210 -25h-23q-36 0 -36 36v78q0 35 36 35h139q168 0 190 204q0 26 25 26t25 -26q22 -204 189 -204h64
q17 0 17 -35v-78zM488 681l-103 -106l-104 106l104 106zM245 681l-102 -106l-105 106l105 106z" />
    <glyph glyph-name="uniFB66" unicode="&#x679;" horiz-adv-x="1447" arabic-form="isolated" 
d="M1364 267q-1 -69 -40 -128q-44 -63 -122 -89q-198 -63 -634 -63q-456 0 -456 282q0 81 36 159q31 70 53 70q27 0 27 -24q0 -2 -19 -46t-19 -86q0 -94 85 -142q112 -63 389 -63q257 0 427 24q194 29 194 81q0 36 -85 142l69 148q53 -63 73 -114q23 -59 22 -151zM955 820
q0 -48 -22.5 -79t-59.5 -52q-43 -19 -91 -26.5t-90 -7.5q-36 0 -61 6.5t-49 27.5q-17 18 -32.5 35.5t-15.5 25.5q0 10 9 10q7 0 23 -7.5t43 -7.5q16 0 29 7q2 12 3 27t1 25q0 17 -1.5 42t-4.5 54.5t-7.5 62.5t-10.5 66l62 56l59 -114l-45 7q2 -23 2 -43v-38q0 -18 -1 -35.5
t-4 -30.5l5 -3q17 22 37.5 41t41.5 33t42.5 23t41.5 9q18 0 35.5 -7.5t30.5 -22t21.5 -36t8.5 -48.5zM906 792q0 6 -4.5 16t-12.5 19.5t-21 16.5t-29 7q-38 0 -79 -26.5t-87 -82.5q47 0 97 4t88 10q21 4 34.5 11.5t13.5 24.5z" />
    <glyph glyph-name="uniFB67" unicode="&#x679;" horiz-adv-x="1499" arabic-form="final" 
d="M1522 36q0 -36 -16 -36h-32q-180 0 -213 181q-204 -194 -693 -194q-456 0 -456 282q0 81 36 159q31 70 53 70q27 0 27 -24q0 -2 -19 -46t-19 -86q0 -205 417 -205q268 0 451 62q138 47 188 113q69 89 91 89q25 0 25 -26q0 -9 -11.5 -51t-11.5 -66q0 -109 142 -109h25
q16 0 16 -35v-78zM955 820q0 -48 -22.5 -79t-59.5 -52q-43 -19 -91 -26.5t-90 -7.5q-36 0 -61 6.5t-49 27.5q-17 18 -32.5 35.5t-15.5 25.5q0 10 9 10q7 0 23 -7.5t43 -7.5q16 0 29 7q2 12 3 27t1 25q0 17 -1.5 42t-4.5 54.5t-7.5 62.5t-10.5 66l62 56l59 -114l-45 7
q2 -23 2 -43v-38q0 -18 -1 -35.5t-4 -30.5l5 -3q17 22 37.5 41t41.5 33t42.5 23t41.5 9q18 0 35.5 -7.5t30.5 -22t21.5 -36t8.5 -48.5zM906 792q0 6 -4.5 16t-12.5 19.5t-21 16.5t-29 7q-38 0 -79 -26.5t-87 -82.5q47 0 97 4t88 10q21 4 34.5 11.5t13.5 24.5z" />
    <glyph glyph-name="uniFB68" unicode="&#x679;" horiz-adv-x="499" arabic-form="initial" 
d="M446 911q0 -48 -22.5 -79t-59.5 -52q-43 -19 -91 -26.5t-90 -7.5q-36 0 -61 6.5t-49 27.5q-17 18 -32.5 35.5t-15.5 25.5q0 10 9 10q7 0 23 -7.5t42 -7.5q17 0 30 7q2 12 3 27.5t1 25.5q0 16 -1.5 41t-4.5 54.5t-7.5 62.5t-11.5 66l62 56l60 -114l-45 7q2 -23 2 -43v-38
q0 -18 -1 -35.5t-4 -30.5l5 -3q17 22 37.5 41t41.5 33.5t42.5 23t41.5 8.5q18 0 35.5 -7.5t30.5 -22t21.5 -36t8.5 -48.5zM382 272q0 -154 -87 -216q-78 -56 -258 -56h-41q-36 0 -36 36v78q0 35 36 35h23q284 0 284 70q0 73 -85 178l68 151q96 -135 96 -276zM397 883
q0 6 -4.5 16t-12.5 19.5t-21 16.5t-29 7q-38 0 -79 -26.5t-87 -82.5q47 0 97 4t88 10q21 4 34.5 11.5t13.5 24.5z" />
    <glyph glyph-name="uniFB69" unicode="&#x679;" horiz-adv-x="621" arabic-form="medial" 
d="M645 36q0 -36 -17 -36h-24q-104 0 -157 24q-62 28 -95 104q-37 -74 -123 -103q-73 -25 -210 -25h-23q-36 0 -36 36v78q0 35 36 35h139q168 0 190 204q0 26 25 26t25 -26q22 -204 189 -204h64q17 0 17 -35v-78zM500 865q0 -48 -22 -79t-60 -52q-43 -19 -90.5 -26t-89.5 -7
q-37 0 -62 6t-48 27q-18 19 -33.5 36t-15.5 25q0 10 9 10q8 0 24 -7t42 -7q16 0 29 6q3 13 4 28t1 25q0 16 -1.5 41t-4.5 55t-7.5 62.5t-11.5 65.5l62 57l59 -114l-44 6q2 -23 2 -43v-37q0 -18 -1 -36t-4 -31l5 -2q17 22 37.5 41t41.5 33t42.5 22.5t41.5 8.5q18 0 35 -7
t30.5 -21.5t21.5 -36t8 -49.5zM452 837q0 7 -4.5 17t-13 19.5t-21 16t-28.5 6.5q-39 0 -80 -26t-86 -83q46 0 96 4t89 11q21 3 34.5 11t13.5 24z" />
    <glyph glyph-name="uniFB6A" unicode="&#x6a4;" horiz-adv-x="1507" arabic-form="isolated" 
d="M1424 336q0 -217 -181 -286q-167 -63 -675 -63q-456 0 -456 282q0 81 36 159q31 70 53 70q27 0 27 -24q0 -2 -19 -46t-19 -86q0 -205 417 -205q466 0 638 50q115 33 115 104q0 33 -11 52q-41 -26 -181 -26q-187 0 -187 144q0 103 45 208q58 137 155 137q121 0 185 -141
q58 -126 58 -329zM1323 487q-8 61 -52 112q-49 58 -109 58q-41 0 -72 -30t-31 -71q0 -90 135 -90q88 0 129 21zM1276 1254l-104 -106l-103 106l104 106zM1397 1038l-102 -107l-104 107l104 106zM1155 1038l-103 -107l-104 107l104 106z" />
    <glyph glyph-name="uniFB6B" unicode="&#x6a4;" horiz-adv-x="1513" arabic-form="final" 
d="M1536 36q0 -36 -17 -36h-25q-181 0 -317 89q-222 -102 -609 -102q-456 0 -456 282q0 81 36 159q31 70 53 70q27 0 27 -24q0 -2 -19 -46t-19 -86q0 -205 417 -205q282 0 434 39q-76 73 -76 143q0 126 75.5 229t162.5 103q84 0 135 -98q43 -82 43 -181q0 -101 -76 -193
q42 -30 150 -30h64q17 0 17 -35v-78zM1317 336q0 54 -43.5 110t-91.5 56q-51 0 -102.5 -50.5t-51.5 -102.5q0 -43 63 -91q60 -46 98 -46q21 0 70 38q58 43 58 86zM1276 1145l-104 -106l-103 106l104 106zM1397 928l-102 -106l-104 106l104 107zM1155 928l-103 -106l-104 106
l104 107z" />
    <glyph glyph-name="uniFB6C" unicode="&#x6a4;" horiz-adv-x="647" arabic-form="initial" 
d="M555 334q0 -181 -123 -257.5t-413 -76.5h-23q-36 0 -36 36v78q0 35 36 35h112q384 0 384 142q0 33 -12 52q-40 -26 -180 -26q-187 0 -187 144q0 103 45 208q57 137 155 137q120 0 185 -141q57 -126 57 -331zM455 487q-9 61 -53 112q-48 58 -108 58q-41 0 -72 -30t-31 -71
q0 -90 134 -90q89 0 130 21zM403 1254l-105 -106l-102 106l104 106zM524 1038l-102 -107l-105 107l105 106zM282 1038l-103 -107l-104 107l104 106z" />
    <glyph glyph-name="uniFB6D" unicode="&#x6a4;" horiz-adv-x="723" arabic-form="medial" 
d="M747 36q0 -36 -16 -36h-25q-179 0 -317 87q-108 -51 -178 -69q-75 -18 -192 -18h-23q-36 0 -36 36v78q0 35 36 35h23q182 0 233 24q-75 77 -75 146q0 126 75.5 229t163.5 103q83 0 134 -98q42 -82 42 -181q0 -101 -76 -193q44 -30 190 -30h25q16 0 16 -35v-78zM529 336
q0 54 -44 110t-90 56q-52 0 -103.5 -50.5t-51.5 -102.5q0 -43 63 -91q59 -46 97 -46q22 0 71 38q58 43 58 86zM485 1145l-105 -106l-102 106l104 106zM606 928l-102 -106l-105 106l105 107zM364 928l-103 -106l-104 106l104 107z" />
    <glyph glyph-name="uniFB6E" unicode="&#x6a6;" horiz-adv-x="1507" arabic-form="isolated" 
d="M1424 336q0 -217 -181 -286q-167 -63 -675 -63q-456 0 -456 282q0 81 36 159q31 70 53 70q27 0 27 -24q0 -2 -19 -46t-19 -86q0 -205 417 -205q466 0 638 50q115 33 115 104q0 33 -11 52q-41 -26 -181 -26q-187 0 -187 144q0 103 45 208q58 137 155 137q121 0 185 -141
q58 -126 58 -329zM1323 487q-8 61 -52 112q-49 58 -109 58q-41 0 -72 -30t-31 -71q0 -90 135 -90q88 0 129 21zM1394 1253l-102 -107l-105 107l105 106zM1151 1253l-102 -107l-104 107l104 106zM1397 1038l-102 -107l-104 107l104 106zM1155 1038l-103 -107l-104 107
l104 106z" />
    <glyph glyph-name="uniFB6F" unicode="&#x6a6;" horiz-adv-x="1513" arabic-form="final" 
d="M1536 36q0 -36 -17 -36h-25q-181 0 -317 89q-222 -102 -609 -102q-456 0 -456 282q0 81 36 159q31 70 53 70q27 0 27 -24q0 -2 -19 -46t-19 -86q0 -205 417 -205q282 0 434 39q-76 73 -76 143q0 126 75.5 229t162.5 103q84 0 135 -98q43 -82 43 -181q0 -101 -76 -193
q42 -30 150 -30h64q17 0 17 -35v-78zM1317 336q0 54 -43.5 110t-91.5 56q-51 0 -102.5 -50.5t-51.5 -102.5q0 -43 63 -91q60 -46 98 -46q21 0 70 38q58 43 58 86zM1397 1142l-102 -106l-104 106l104 107zM1155 1142l-103 -106l-104 106l104 107zM1397 928l-102 -106
l-104 106l104 107zM1155 928l-103 -106l-104 106l104 107z" />
    <glyph glyph-name="uniFB70" unicode="&#x6a6;" horiz-adv-x="647" arabic-form="initial" 
d="M555 334q0 -181 -123 -257.5t-413 -76.5h-23q-36 0 -36 36v78q0 35 36 35h112q384 0 384 142q0 33 -12 52q-40 -26 -180 -26q-187 0 -187 144q0 103 45 208q57 137 155 137q120 0 185 -141q57 -126 57 -331zM455 487q-9 61 -53 112q-48 58 -108 58q-41 0 -72 -30t-31 -71
q0 -90 134 -90q89 0 130 21zM524 1252l-102 -107l-105 107l105 106zM282 1252l-103 -107l-104 107l104 106zM524 1038l-102 -107l-105 107l105 106zM282 1038l-103 -107l-104 107l104 106z" />
    <glyph glyph-name="uniFB71" unicode="&#x6a6;" horiz-adv-x="723" arabic-form="medial" 
d="M747 36q0 -36 -16 -36h-25q-179 0 -317 87q-108 -51 -178 -69q-75 -18 -192 -18h-23q-36 0 -36 36v78q0 35 36 35h23q182 0 233 24q-75 77 -75 146q0 126 75.5 229t163.5 103q83 0 134 -98q42 -82 42 -181q0 -101 -76 -193q44 -30 190 -30h25q16 0 16 -35v-78zM529 336
q0 54 -44 110t-90 56q-52 0 -103.5 -50.5t-51.5 -102.5q0 -43 63 -91q59 -46 97 -46q22 0 71 38q58 43 58 86zM504 1035l-105 106l105 106l102 -106l-102 -106l102 -107l-102 -106l-105 106zM261 1035l-104 106l104 106l103 -106l-103 -106l103 -107l-103 -106l-104 106z
" />
    <glyph glyph-name="uniFB72" unicode="&#x684;" horiz-adv-x="1119" arabic-form="isolated" 
d="M642 -259l-106 104l106 103l107 -103zM642 -16l-106 104l106 102l107 -102zM1006 364q-62 1 -144.5 -9.5t-171 -35t-174.5 -63.5t-154 -94.5t-110 -128t-42 -163.5q0 -90 42.5 -150t115.5 -96t169.5 -51t204.5 -15q66 0 130 8t116 17.5t86 17t36 7.5q8 0 8 -9
q0 -5 -13 -21t-38 -36.5t-63 -43t-87 -41t-109.5 -31t-132.5 -12.5q-125 0 -227 21.5t-174.5 69.5t-112.5 125.5t-40 190.5q0 112 41.5 202t111 160t160.5 121.5t191 89.5v9q-41 6 -84.5 11.5t-85 9.5t-79 6.5t-66.5 2.5q-41 0 -66.5 -14.5t-43.5 -30.5t-30.5 -30.5
t-23.5 -14.5q-8 0 -12 4t-4 15q0 25 15.5 62.5t43 72.5t64.5 60t81 25q61 0 130 -11t139 -23.5t139 -23.5t131 -11l194 -4z" />
    <glyph glyph-name="uniFB73" unicode="&#x684;" horiz-adv-x="1154" arabic-form="final" 
d="M569 -282l-105 105l105 103l107 -103zM569 -38l-105 104l105 103l107 -103zM1006 367l-161 -7q-8 -65 1.5 -106t39.5 -64t82 -32t129 -9h63q11 0 14 -8.5t3 -26.5v-78q0 -18 -3 -27t-14 -9h-80q-104 0 -167 22t-94 65.5t-36 109t6 154.5q-59 -15 -125 -37t-130 -52
t-123 -69t-103.5 -88t-71 -107.5t-26.5 -127.5q0 -90 42.5 -150t115.5 -96t169.5 -51t204.5 -15q66 0 130 8t116 17.5t86 17t36 7.5q8 0 8 -9q0 -5 -13 -21t-38 -36.5t-63 -43t-87 -41t-109.5 -31t-132.5 -12.5q-125 0 -227 21.5t-174.5 69.5t-112.5 125.5t-40 190.5
q1 112 43 202t111 160t159.5 121.5t190.5 89.5v9q-97 14 -176.5 22t-138.5 8q-41 0 -66.5 -14.5t-43.5 -30.5t-30.5 -30.5t-23.5 -14.5q-8 0 -12 4t-4 15q0 25 15.5 62.5t43 72.5t64.5 60t81 25q61 0 130 -11t139 -23.5t139 -23.5t131 -11l194 -4z" />
    <glyph glyph-name="uniFB74" unicode="&#x684;" horiz-adv-x="1132" arabic-form="initial" 
d="M546 -480l-107 105l107 103l105 -103zM546 -238l-107 105l107 103l105 -103zM1012 287h-67q-40 0 -73 -3t-76 -18t-105.5 -43.5t-163.5 -80.5q-99 -51 -176.5 -79.5t-136.5 -42.5t-103 -17t-75 -3h-41q-17 0 -17 36v78q0 35 17 35h24q19 0 45 2t56 5.5t62.5 8.5t64.5 11
q37 6 86 21.5t107.5 37.5t123 49.5t133.5 58.5v10q-140 57 -240 92.5t-159 35.5q-40 0 -66.5 -13.5t-44.5 -30t-30 -30t-24 -13.5q-7 0 -11 3.5t-4 15.5q0 24 15 61.5t42.5 72t65 59t80.5 24.5q51 0 149.5 -36t237.5 -96q44 -20 84 -33.5t82 -22t92 -13t115 -5.5z" />
    <glyph glyph-name="uniFB75" unicode="&#x684;" horiz-adv-x="1137" arabic-form="medial" 
d="M601 -480l-106 104l106 103l106 -103zM601 -238l-106 105l106 102l106 -102zM1028 349q-29 5 -71 3t-79 -9l-2 -54q0 -26 6 -51t27 -44.5t61.5 -32t110.5 -12.5h63q10 0 13.5 -8.5t3.5 -26.5v-78q0 -18 -3.5 -27t-13.5 -9h-24q-82 0 -140.5 14t-95.5 41.5t-54 67.5
t-17 92q0 34 1.5 60.5t7.5 50.5q-27 -10 -57 -24.5t-68.5 -36t-90 -52t-121.5 -73.5q-53 -32 -106.5 -58.5t-110 -44.5t-118 -27.5t-131.5 -9.5h-24q-17 0 -17 36v78q0 35 17 35h24q41 0 80 2.5t81.5 10t91.5 23t109.5 41t136.5 63t173 90.5v9q-104 28 -173 46t-115 28.5
t-73 14.5t-44 4q-40 0 -66 -13.5t-44 -30t-30 -30t-24 -13.5q-7 0 -11 3.5t-4 15.5q0 24 15 61.5t42.5 72t65 59t81.5 24.5q48 0 90.5 -10t87.5 -25t94.5 -32.5t110 -33t135.5 -26t170 -10.5h90z" />
    <glyph glyph-name="uniFB76" unicode="&#x683;" horiz-adv-x="1119" arabic-form="isolated" 
d="M418 -15l104 105l103 -105l-103 -107zM660 -15l105 105l102 -105l-102 -107zM1006 364q-62 1 -144.5 -9.5t-171 -35t-174.5 -63.5t-154 -94.5t-110 -128t-42 -163.5q0 -90 42.5 -150t115.5 -96t169.5 -51t204.5 -15q66 0 130 8t116 17.5t86 17t36 7.5q8 0 8 -9
q0 -5 -13 -21t-38 -36.5t-63 -43t-87 -41t-109.5 -31t-132.5 -12.5q-125 0 -227 21.5t-174.5 69.5t-112.5 125.5t-40 190.5q0 112 41.5 202t111 160t160.5 121.5t191 89.5v9q-41 6 -84.5 11.5t-85 9.5t-79 6.5t-66.5 2.5q-41 0 -66.5 -14.5t-43.5 -30.5t-30.5 -30.5
t-23.5 -14.5q-8 0 -12 4t-4 15q0 25 15.5 62.5t43 72.5t64.5 60t81 25q61 0 130 -11t139 -23.5t139 -23.5t131 -11l194 -4z" />
    <glyph glyph-name="uniFB77" unicode="&#x683;" horiz-adv-x="1154" arabic-form="final" 
d="M326 -38l105 105l103 -105l-103 -107zM569 -38l104 105l103 -105l-103 -107zM1006 367l-161 -7q-8 -65 1.5 -106t39.5 -64t82 -32t129 -9h63q11 0 14 -8.5t3 -26.5v-78q0 -18 -3 -27t-14 -9h-80q-104 0 -167 22t-94 65.5t-36 109t6 154.5q-59 -15 -125 -37t-130 -52
t-123 -69t-103.5 -88t-71 -107.5t-26.5 -127.5q0 -90 42.5 -150t115.5 -96t169.5 -51t204.5 -15q66 0 130 8t116 17.5t86 17t36 7.5q8 0 8 -9q0 -5 -13 -21t-38 -36.5t-63 -43t-87 -41t-109.5 -31t-132.5 -12.5q-125 0 -227 21.5t-174.5 69.5t-112.5 125.5t-40 190.5
q1 112 43 202t111 160t159.5 121.5t190.5 89.5v9q-97 14 -176.5 22t-138.5 8q-41 0 -66.5 -14.5t-43.5 -30.5t-30.5 -30.5t-23.5 -14.5q-8 0 -12 4t-4 15q0 25 15.5 62.5t43 72.5t64.5 60t81 25q61 0 130 -11t139 -23.5t139 -23.5t131 -11l194 -4z" />
    <glyph glyph-name="uniFB78" unicode="&#x683;" horiz-adv-x="1132" arabic-form="initial" 
d="M320 -256l104 107l103 -107l-103 -106zM562 -256l105 107l103 -107l-103 -106zM1012 287h-67q-40 0 -73 -3t-76 -18t-105.5 -43.5t-163.5 -80.5q-99 -51 -176.5 -79.5t-136.5 -42.5t-103 -17t-75 -3h-41q-17 0 -17 36v78q0 35 17 35h24q19 0 45 2t56 5.5t62.5 8.5
t64.5 11q37 6 86 21.5t107.5 37.5t123 49.5t133.5 58.5v10q-140 57 -240 92.5t-159 35.5q-40 0 -66.5 -13.5t-44.5 -30t-30 -30t-24 -13.5q-7 0 -11 3.5t-4 15.5q0 24 15 61.5t42.5 72t65 59t80.5 24.5q51 0 149.5 -36t237.5 -96q44 -20 84 -33.5t82 -22t92 -13t115 -5.5z
" />
    <glyph glyph-name="uniFB79" unicode="&#x683;" horiz-adv-x="1137" arabic-form="medial" 
d="M376 -256l104 107l103 -107l-103 -106zM618 -256l105 107l102 -107l-102 -106zM1028 349q-29 5 -71 3t-79 -9l-2 -54q0 -26 6 -51t27 -44.5t61.5 -32t110.5 -12.5h63q10 0 13.5 -8.5t3.5 -26.5v-78q0 -18 -3.5 -27t-13.5 -9h-24q-82 0 -140.5 14t-95.5 41.5t-54 67.5
t-17 92q0 34 1.5 60.5t7.5 50.5q-27 -10 -57 -24.5t-68.5 -36t-90 -52t-121.5 -73.5q-53 -32 -106.5 -58.5t-110 -44.5t-118 -27.5t-131.5 -9.5h-24q-17 0 -17 36v78q0 35 17 35h24q41 0 80 2.5t81.5 10t91.5 23t109.5 41t136.5 63t173 90.5v9q-104 28 -173 46t-115 28.5
t-73 14.5t-44 4q-40 0 -66 -13.5t-44 -30t-30 -30t-24 -13.5q-7 0 -11 3.5t-4 15.5q0 24 15 61.5t42.5 72t65 59t81.5 24.5q48 0 90.5 -10t87.5 -25t94.5 -32.5t110 -33t135.5 -26t170 -10.5h90z" />
    <glyph glyph-name="uniFB7A" unicode="&#x686;" horiz-adv-x="1119" arabic-form="isolated" 
d="M418 21l104 106l103 -106l-103 -107zM536 -196l103 107l103 -107l-103 -106zM660 21l105 106l102 -106l-102 -107zM1006 364q-62 1 -144.5 -9.5t-171 -35t-174.5 -63.5t-154 -94.5t-110 -128t-42 -163.5q0 -90 42.5 -150t115.5 -96t169.5 -51t204.5 -15q66 0 130 8
t116 17.5t86 17t36 7.5q8 0 8 -9q0 -5 -13 -21t-38 -36.5t-63 -43t-87 -41t-109.5 -31t-132.5 -12.5q-125 0 -227 21.5t-174.5 69.5t-112.5 125.5t-40 190.5q0 112 41.5 202t111 160t160.5 121.5t191 89.5v9q-41 6 -84.5 11.5t-85 9.5t-79 6.5t-66.5 2.5q-41 0 -66.5 -14.5
t-43.5 -30.5t-30.5 -30.5t-23.5 -14.5q-8 0 -12 4t-4 15q0 25 15.5 62.5t43 72.5t64.5 60t81 25q61 0 130 -11t139 -23.5t139 -23.5t131 -11l194 -4z" />
    <glyph glyph-name="uniFB7B" unicode="&#x686;" horiz-adv-x="1154" arabic-form="final" 
d="M326 -11l105 106l103 -106l-103 -107zM444 -228l104 107l103 -107l-103 -106zM569 -11l104 106l103 -106l-103 -107zM1006 367l-161 -7q-8 -65 1.5 -106t39.5 -64t82 -32t129 -9h63q11 0 14 -8.5t3 -26.5v-78q0 -18 -3 -27t-14 -9h-80q-104 0 -167 22t-94 65.5t-36 109
t6 154.5q-59 -15 -125 -37t-130 -52t-123 -69t-103.5 -88t-71 -107.5t-26.5 -127.5q0 -90 42.5 -150t115.5 -96t169.5 -51t204.5 -15q66 0 130 8t116 17.5t86 17t36 7.5q8 0 8 -9q0 -5 -13 -21t-38 -36.5t-63 -43t-87 -41t-109.5 -31t-132.5 -12.5q-125 0 -227 21.5
t-174.5 69.5t-112.5 125.5t-40 190.5q1 112 43 202t111 160t159.5 121.5t190.5 89.5v9q-97 14 -176.5 22t-138.5 8q-41 0 -66.5 -14.5t-43.5 -30.5t-30.5 -30.5t-23.5 -14.5q-8 0 -12 4t-4 15q0 25 15.5 62.5t43 72.5t64.5 60t81 25q61 0 130 -11t139 -23.5t139 -23.5
t131 -11l194 -4z" />
    <glyph glyph-name="uniFB7C" unicode="&#x686;" horiz-adv-x="1132" arabic-form="initial" 
d="M320 -256l104 107l103 -107l-103 -106zM437 -472l105 107l103 -107l-103 -107zM562 -256l105 107l103 -107l-103 -106zM1012 287h-67q-40 0 -73 -3t-76 -18t-105.5 -43.5t-163.5 -80.5q-99 -51 -176.5 -79.5t-136.5 -42.5t-103 -17t-75 -3h-41q-17 0 -17 36v78
q0 35 17 35h24q19 0 45 2t56 5.5t62.5 8.5t64.5 11q37 6 86 21.5t107.5 37.5t123 49.5t133.5 58.5v10q-140 57 -240 92.5t-159 35.5q-40 0 -66.5 -13.5t-44.5 -30t-30 -30t-24 -13.5q-7 0 -11 3.5t-4 15.5q0 24 15 61.5t42.5 72t65 59t80.5 24.5q51 0 149.5 -36t237.5 -96
q44 -20 84 -33.5t82 -22t92 -13t115 -5.5z" />
    <glyph glyph-name="uniFB7D" unicode="&#x686;" horiz-adv-x="1137" arabic-form="medial" 
d="M376 -256l104 107l103 -107l-103 -106zM494 -472l104 107l102 -107l-102 -107zM618 -256l105 107l102 -107l-102 -106zM1028 349q-29 5 -71 3t-79 -9l-2 -54q0 -26 6 -51t27 -44.5t61.5 -32t110.5 -12.5h63q10 0 13.5 -8.5t3.5 -26.5v-78q0 -18 -3.5 -27t-13.5 -9h-24
q-82 0 -140.5 14t-95.5 41.5t-54 67.5t-17 92q0 34 1.5 60.5t7.5 50.5q-27 -10 -57 -24.5t-68.5 -36t-90 -52t-121.5 -73.5q-53 -32 -106.5 -58.5t-110 -44.5t-118 -27.5t-131.5 -9.5h-24q-17 0 -17 36v78q0 35 17 35h24q41 0 80 2.5t81.5 10t91.5 23t109.5 41t136.5 63
t173 90.5v9q-104 28 -173 46t-115 28.5t-73 14.5t-44 4q-40 0 -66 -13.5t-44 -30t-30 -30t-24 -13.5q-7 0 -11 3.5t-4 15.5q0 24 15 61.5t42.5 72t65 59t81.5 24.5q48 0 90.5 -10t87.5 -25t94.5 -32.5t110 -33t135.5 -26t170 -10.5h90z" />
    <glyph glyph-name="uniFB7E" unicode="&#x687;" horiz-adv-x="1119" arabic-form="isolated" 
d="M415 -190l104 105l103 -105l-103 -107zM658 -190l104 105l102 -105l-102 -107zM1006 364q-62 1 -144.5 -9.5t-171 -35t-174.5 -63.5t-154 -94.5t-110 -128t-42 -163.5q0 -90 42.5 -150t115.5 -96t169.5 -51t204.5 -15q66 0 130 8t116 17.5t86 17t36 7.5q8 0 8 -9
q0 -5 -13 -21t-38 -36.5t-63 -43t-87 -41t-109.5 -31t-132.5 -12.5q-125 0 -227 21.5t-174.5 69.5t-112.5 125.5t-40 190.5q0 112 41.5 202t111 160t160.5 121.5t191 89.5v9q-41 6 -84.5 11.5t-85 9.5t-79 6.5t-66.5 2.5q-41 0 -66.5 -14.5t-43.5 -30.5t-30.5 -30.5
t-23.5 -14.5q-8 0 -12 4t-4 15q0 25 15.5 62.5t43 72.5t64.5 60t81 25q61 0 130 -11t139 -23.5t139 -23.5t131 -11l194 -4zM418 21l104 106l103 -106l-103 -107zM660 21l105 106l102 -106l-102 -107z" />
    <glyph glyph-name="uniFB7F" unicode="&#x687;" horiz-adv-x="1154" arabic-form="final" 
d="M326 -228l105 106l103 -106l-103 -106zM569 -228l104 106l103 -106l-103 -106zM1006 367l-161 -7q-8 -65 1.5 -106t39.5 -64t82 -32t129 -9h63q11 0 14 -8.5t3 -26.5v-78q0 -18 -3 -27t-14 -9h-80q-104 0 -167 22t-94 65.5t-36 109t6 154.5q-59 -15 -125 -37t-130 -52
t-123 -69t-103.5 -88t-71 -107.5t-26.5 -127.5q0 -90 42.5 -150t115.5 -96t169.5 -51t204.5 -15q66 0 130 8t116 17.5t86 17t36 7.5q8 0 8 -9q0 -5 -13 -21t-38 -36.5t-63 -43t-87 -41t-109.5 -31t-132.5 -12.5q-125 0 -227 21.5t-174.5 69.5t-112.5 125.5t-40 190.5
q1 112 43 202t111 160t159.5 121.5t190.5 89.5v9q-97 14 -176.5 22t-138.5 8q-41 0 -66.5 -14.5t-43.5 -30.5t-30.5 -30.5t-23.5 -14.5q-8 0 -12 4t-4 15q0 25 15.5 62.5t43 72.5t64.5 60t81 25q61 0 130 -11t139 -23.5t139 -23.5t131 -11l194 -4zM326 -11l105 106l103 -106
l-103 -107zM569 -11l104 106l103 -106l-103 -107z" />
    <glyph glyph-name="uniFB80" unicode="&#x687;" horiz-adv-x="1132" arabic-form="initial" 
d="M1012 287h-67q-40 0 -73 -3t-76 -18t-105.5 -43.5t-163.5 -80.5q-99 -51 -176.5 -79.5t-136.5 -42.5t-103 -17t-75 -3h-41q-17 0 -17 36v78q0 35 17 35h24q19 0 45 2t56 5.5t62.5 8.5t64.5 11q37 6 86 21.5t107.5 37.5t123 49.5t133.5 58.5v10q-140 57 -240 92.5
t-159 35.5q-40 0 -66.5 -13.5t-44.5 -30t-30 -30t-24 -13.5q-7 0 -11 3.5t-4 15.5q0 24 15 61.5t42.5 72t65 59t80.5 24.5q51 0 149.5 -36t237.5 -96q44 -20 84 -33.5t82 -22t92 -13t115 -5.5zM320 -468l104 106l103 -106l-103 -106zM562 -256l105 107l103 -107l-103 -106z
M320 -256l104 107l103 -107l-103 -106zM562 -468l105 106l103 -106l-103 -106z" />
    <glyph glyph-name="uniFB81" unicode="&#x687;" horiz-adv-x="1137" arabic-form="medial" 
d="M376 -471l104 107l103 -107l-103 -106zM618 -471l105 107l102 -107l-102 -106zM1028 349q-29 5 -71 3t-79 -9l-2 -54q0 -26 6 -51t27 -44.5t61.5 -32t110.5 -12.5h63q10 0 13.5 -8.5t3.5 -26.5v-78q0 -18 -3.5 -27t-13.5 -9h-24q-82 0 -140.5 14t-95.5 41.5t-54 67.5
t-17 92q0 34 1.5 60.5t7.5 50.5q-27 -10 -57 -24.5t-68.5 -36t-90 -52t-121.5 -73.5q-53 -32 -106.5 -58.5t-110 -44.5t-118 -27.5t-131.5 -9.5h-24q-17 0 -17 36v78q0 35 17 35h24q41 0 80 2.5t81.5 10t91.5 23t109.5 41t136.5 63t173 90.5v9q-104 28 -173 46t-115 28.5
t-73 14.5t-44 4q-40 0 -66 -13.5t-44 -30t-30 -30t-24 -13.5q-7 0 -11 3.5t-4 15.5q0 24 15 61.5t42.5 72t65 59t81.5 24.5q48 0 90.5 -10t87.5 -25t94.5 -32.5t110 -33t135.5 -26t170 -10.5h90zM376 -256l104 107l103 -107l-103 -106zM618 -256l105 107l102 -107l-102 -106
z" />
    <glyph glyph-name="uniFB82" unicode="&#x68d;" horiz-adv-x="847" arabic-form="isolated" 
d="M763 276q0 -147 -93.5 -211.5t-309.5 -64.5q-248 0 -248 196q0 71 20 117q17 40 36 40t19 -25q0 -6 -4 -31.5t-4 -36.5q0 -111 200 -111q317 0 317 109q0 57 -101 167q-95 102 -232 200l38 158q362 -262 362 -507zM556 -158l103 -105l-103 -107l-105 107zM313 -158
l103 -105l-103 -107l-104 107z" />
    <glyph glyph-name="uniFB83" unicode="&#x68d;" horiz-adv-x="956" arabic-form="final" 
d="M979 36q0 -36 -16 -36h-25q-74 0 -122 36q-44 31 -105 128q-34 -94 -126 -131q-78 -33 -225 -33q-248 0 -248 196q0 71 20 117q17 40 36 40t19 -25q0 -6 -4 -31.5t-4 -36.5q0 -111 200 -111q296 0 296 114q0 30 -79.5 224t-80.5 211l74 132q59 -175 198 -550
q47 -116 123 -131h53q16 0 16 -35v-78zM556 -158l103 -105l-103 -107l-105 107zM313 -158l103 -105l-103 -107l-104 107z" />
    <glyph glyph-name="uniFB84" unicode="&#x68c;" horiz-adv-x="847" arabic-form="isolated" 
d="M615 1099l-103 -106l-105 106l105 106zM763 276q0 -147 -93.5 -211.5t-309.5 -64.5q-248 0 -248 196q0 71 20 117q17 40 36 40t19 -25q0 -6 -4 -31.5t-4 -36.5q0 -111 200 -111q317 0 317 109q0 57 -101 167q-95 102 -232 200l38 158q362 -262 362 -507zM393 1099
l-103 -106l-105 106l105 106z" />
    <glyph glyph-name="uniFB85" unicode="&#x68c;" horiz-adv-x="956" arabic-form="final" 
d="M556 1121l-102 -106l-105 106l105 107zM979 36q0 -36 -16 -36h-25q-74 0 -122 36q-44 31 -105 128q-34 -94 -126 -131q-78 -33 -225 -33q-248 0 -248 196q0 71 20 117q17 40 36 40t19 -25q0 -6 -4 -31.5t-4 -36.5q0 -111 200 -111q296 0 296 114q0 30 -79.5 224
t-80.5 211l74 132q59 -175 198 -550q47 -116 123 -131h53q16 0 16 -35v-78zM781 1121l-102 -106l-105 106l105 107z" />
    <glyph glyph-name="uniFB86" unicode="&#x68e;" horiz-adv-x="847" arabic-form="isolated" 
d="M763 276q0 -147 -93.5 -211.5t-309.5 -64.5q-248 0 -248 196q0 71 20 117q17 40 36 40t19 -25q0 -6 -4 -31.5t-4 -36.5q0 -111 200 -111q317 0 317 109q0 57 -101 167q-95 102 -232 200l38 158q362 -262 362 -507zM399 1424l103 -107l-103 -106l-105 106zM524 1207
l103 -106l-103 -106l-105 106zM281 1207l103 -106l-103 -106l-104 106z" />
    <glyph glyph-name="uniFB87" unicode="&#x68e;" horiz-adv-x="956" arabic-form="final" 
d="M979 36q0 -36 -16 -36h-25q-74 0 -122 36q-44 31 -105 128q-34 -94 -126 -131q-78 -33 -225 -33q-248 0 -248 196q0 71 20 117q17 40 36 40t19 -25q0 -6 -4 -31.5t-4 -36.5q0 -111 200 -111q296 0 296 114q0 30 -79.5 224t-80.5 211l74 132q59 -175 198 -550
q47 -116 123 -131h53q16 0 16 -35v-78zM561 1443l103 -107l-103 -106l-105 106zM686 1226l103 -105l-103 -107l-105 107zM444 1226l103 -105l-103 -107l-105 107z" />
    <glyph glyph-name="uniFB88" unicode="&#x688;" horiz-adv-x="847" arabic-form="isolated" 
d="M763 276q0 -147 -93.5 -211.5t-309.5 -64.5q-248 0 -248 196q0 71 20 117q17 40 36 40t19 -25q0 -6 -4 -31.5t-4 -36.5q0 -111 200 -111q317 0 317 109q0 57 -101 167q-95 102 -232 200l38 158q362 -262 362 -507zM581 1111q0 -48 -22 -79t-60 -52q-43 -19 -90.5 -26
t-89.5 -7q-37 0 -62 6t-48 27q-18 18 -33.5 35.5t-15.5 25.5q0 10 9 10q8 0 24 -7t42 -7q16 0 29 6q3 13 4 28t1 25q0 16 -1.5 41t-4.5 55t-8 62.5t-11 65.5l62 57l59 -114l-44 6q1 -23 1 -43v-37q0 -18 -0.5 -36t-3.5 -31l4 -2q18 22 38.5 41t41.5 33t42 22.5t42 8.5
q18 0 35 -7t30.5 -21.5t21.5 -36t8 -49.5zM533 1083q0 7 -4.5 17t-13 19.5t-21 16t-29.5 6.5q-38 0 -79 -26t-86 -83q46 0 96 4t89 11q21 3 34.5 11t13.5 24z" />
    <glyph glyph-name="uniFB89" unicode="&#x688;" horiz-adv-x="956" arabic-form="final" 
d="M979 36q0 -36 -16 -36h-25q-74 0 -122 36q-44 31 -105 128q-34 -94 -126 -131q-78 -33 -225 -33q-248 0 -248 196q0 71 20 117q17 40 36 40t19 -25q0 -6 -4 -31.5t-4 -36.5q0 -111 200 -111q296 0 296 114q0 30 -79.5 224t-80.5 211l74 132q59 -175 198 -550
q47 -116 123 -131h53q16 0 16 -35v-78zM700 1121q0 -49 -22.5 -80t-59.5 -52q-43 -19 -91 -26t-90 -7q-36 0 -61 6t-49 27q-17 19 -32.5 36t-15.5 25q0 10 9 10q7 0 23 -7t42 -7q17 0 30 6q2 13 3 28t1 25q0 16 -1.5 41.5t-4.5 55t-7.5 62t-10.5 65.5l61 57l60 -114l-45 6
q2 -23 2 -43v-37q0 -18 -1 -36t-4 -30l5 -3q17 22 37.5 41t41.5 33t42.5 22.5t41.5 8.5q18 0 35.5 -7t30.5 -21.5t21.5 -36t8.5 -48.5zM651 1092q0 7 -4.5 17t-12.5 19.5t-21 16.5t-29 7q-38 0 -79 -26.5t-87 -83.5q47 0 97 4t88 11q21 3 34.5 11t13.5 24z" />
    <glyph glyph-name="uniFB8A" unicode="&#x698;" horiz-adv-x="669" arabic-form="isolated" 
d="M588 -56q0 -52 -15 -107.5t-40 -107.5t-56.5 -97.5t-63 -79.5t-62 -54t-52.5 -20q-25 0 -56.5 0.5t-64.5 2t-65 3.5t-57 5t-40.5 6.5t-15.5 7.5q0 3 2 6t8 6t18.5 6.5t33.5 9.5q26 6 59.5 20t70.5 34.5t76 47t77 59.5q56 47 89.5 85.5t52 71t24.5 60t6 54.5
q0 25 -11.5 54t-30.5 59t-44 60.5t-52 59.5q10 41 25.5 77t37.5 70q29 -41 55.5 -81.5t46.5 -87t32 -102.5t12 -128zM130 666l105 107l103 -107l-103 -107zM250 883l104 105l103 -105l-103 -107zM374 666l103 107l103 -107l-103 -107z" />
    <glyph glyph-name="uniFB8B" unicode="&#x698;" horiz-adv-x="730" arabic-form="final" 
d="M130 666l105 107l103 -107l-103 -107zM250 883l104 105l103 -105l-103 -107zM374 666l103 107l103 -107l-103 -107zM753 36q0 -18 -3 -27t-13 -9h-25q-16 0 -30.5 1.5t-29.5 4.5t-31.5 9t-38.5 15q5 -21 5.5 -41.5t0.5 -44.5q0 -52 -15 -107.5t-40 -107.5t-56.5 -97.5
t-63 -79.5t-62 -54t-52.5 -20q-25 0 -56.5 0.5t-64.5 2t-65 3.5t-57 5t-40.5 6.5t-15.5 7.5q0 3 2 6t8 6t18.5 6.5t33.5 9.5q26 6 59.5 20t70.5 34.5t76 47t77 59.5q56 47 89.5 85.5t52 71t24.5 60t6 54.5q0 25 -11 53.5t-29.5 57t-41.5 55t-47 47.5l69 141q23 -29 42.5 -52
t45.5 -46q16 -17 38 -29.5t43 -21.5t40 -14t30 -5h41q10 0 13 -8.5t3 -26.5v-78z" />
    <glyph glyph-name="uniFB8C" unicode="&#x691;" horiz-adv-x="669" arabic-form="isolated" 
d="M588 -56q0 -52 -15 -107.5t-40 -107.5t-56.5 -97.5t-63 -79.5t-62 -54t-52.5 -20q-25 0 -56.5 0.5t-64.5 2t-65 3.5t-57 5t-40.5 6.5t-15.5 7.5q0 3 2 6t8 6t18.5 6.5t33.5 8.5q26 6 59.5 20.5t70.5 35t76 47t77 59.5q56 47 89.5 85.5t52 71t24.5 60t6 54.5
q0 25 -11.5 54t-30.5 59t-44 60.5t-52 59.5q10 41 25.5 77t37.5 70q29 -41 55.5 -81.5t46.5 -87t32 -102.5t12 -128zM572 738q0 -48 -22.5 -79t-59.5 -52q-43 -19 -90.5 -26.5t-89.5 -7.5q-37 0 -62 6.5t-48 27.5q-18 18 -33.5 35.5t-15.5 25.5q0 10 9 10q8 0 24 -7.5
t42 -7.5q16 0 29 7q3 12 4 27t1 25q0 17 -1.5 42t-4.5 54.5t-8 62.5t-11 66l62 56l59 -114l-44 7q1 -23 1 -43v-38q0 -18 -0.5 -35.5t-3.5 -30.5l4 -3q18 22 38.5 41t41.5 33.5t42 23t41 8.5q19 0 36 -7.5t30.5 -22t21.5 -36t8 -48.5zM524 710q0 6 -4.5 16t-13 19.5
t-21 16.5t-29.5 7q-38 0 -79 -26.5t-86 -82.5q46 0 96 4t89 10q21 4 34.5 11.5t13.5 24.5z" />
    <glyph glyph-name="uniFB8D" unicode="&#x691;" horiz-adv-x="730" arabic-form="final" 
d="M753 36q0 -18 -3 -27t-13 -9h-25q-16 0 -30.5 1.5t-29.5 4.5t-31.5 9t-38.5 15q5 -21 5.5 -41.5t0.5 -44.5q-2 -52 -18 -107.5t-40.5 -107.5t-55 -97.5t-62.5 -79.5t-61.5 -54t-51.5 -20q-25 0 -56.5 0.5t-64.5 2t-65 3.5t-57 5t-40.5 6.5t-15.5 7.5q0 3 2 6t8 6
t18.5 6.5t33.5 8.5q26 6 59.5 20.5t70.5 35t76 47t77 59.5q56 47 89.5 85.5t52 71t24.5 60t6 54.5q0 25 -11 53.5t-29.5 57t-41.5 55t-47 47.5l69 141q23 -29 42.5 -52t45.5 -46q16 -17 38 -29.5t43 -21.5t40 -14t30 -5h41q10 0 13 -8.5t3 -26.5v-78zM572 738
q0 -48 -22.5 -79t-59.5 -52q-43 -19 -90.5 -26.5t-89.5 -7.5q-37 0 -62 6.5t-48 27.5q-18 18 -33.5 35.5t-15.5 25.5q0 10 9 10q8 0 24 -7.5t42 -7.5q16 0 29 7q3 12 4 27t1 25q0 17 -1.5 42t-4.5 54.5t-8 62.5t-11 66l62 56l59 -114l-44 7q1 -23 1 -43v-38
q0 -18 -0.5 -35.5t-3.5 -30.5l4 -3q18 22 38.5 41t41.5 33.5t42 23t41 8.5q19 0 36 -7.5t30.5 -22t21.5 -36t8 -48.5zM524 710q0 6 -4.5 16t-13 19.5t-21 16.5t-29.5 7q-38 0 -79 -26.5t-86 -82.5q46 0 96 4t89 10q21 4 34.5 11.5t13.5 24.5z" />
    <glyph glyph-name="uniFB8E" unicode="&#x6a9;" horiz-adv-x="1692" arabic-form="isolated" 
d="M1659 1246l-47 -149l-645 -235q90 -93 179 -187q164 -189 164 -373q0 -125 -63 -195t-203 -94q-143 -26 -476 -26q-456 0 -456 282q0 81 36 159q31 70 53 70q27 0 27 -24q0 -2 -19 -46t-19 -86q0 -205 417 -205q369 0 514 42q125 37 125 123q0 66 -81 175
q-74 101 -152 157l-9 -29q-125 114 -125 173q0 178 78 207z" />
    <glyph glyph-name="uniFB8F" unicode="&#x6a9;" horiz-adv-x="1750" arabic-form="final" 
d="M1773 36q0 -36 -17 -36h-24q-118 0 -202 64q-68 52 -220 238q-5 -132 -64 -195q-62 -70 -202 -94q-143 -26 -476 -26q-456 0 -456 282q0 81 36 159q31 70 53 70q27 0 27 -24q0 -2 -19 -46t-19 -86q0 -205 417 -205q369 0 514 42q125 37 125 123q0 71 -95 185
q-51 61 -178 186q-96 95 -96 112q0 172 65 196l717 265l-47 -149l-645 -235q16 -24 535 -602q100 -111 239 -111h15q17 0 17 -35v-78z" />
    <glyph glyph-name="uniFB90" unicode="&#x6a9;" horiz-adv-x="877" arabic-form="initial" 
d="M788 1097l-645 -235q5 -13 32.5 -38.5t66 -63t81 -85.5t79 -106.5t60 -126t23.5 -141.5q0 -70 -15.5 -116.5t-46.5 -79.5q-31 -35 -72 -55.5t-91.5 -31.5t-108.5 -14.5t-122 -3.5h-34q-17 0 -17 36v78q0 35 17 35h24q200 0 302 35.5t102 116.5q0 35 -23.5 82t-58 94.5
t-75.5 89.5t-77 67l-9 -29q-17 15 -39 37.5t-41 46.5t-32 48t-13 41q0 47 6.5 83.5t18 62t25.5 40.5t28 21l701 261z" />
    <glyph glyph-name="uniFB91" unicode="&#x6a9;" horiz-adv-x="928" arabic-form="medial" 
d="M-22 114q0 35 17 35h24q71 0 144 5t131 20t95 45.5t37 81.5q0 41 -27 88.5t-68 97.5t-89.5 98t-89.5 88t-68.5 70t-27.5 42q0 16 2 45.5t9 60t20 56.5t35 34l717 265l-47 -149l-645 -235q4 -5 10.5 -12.5t23.5 -28.5t51 -59.5t92 -104t145.5 -162.5t212.5 -235
q20 -23 43 -43t51 -35t63.5 -24t81.5 -9h14q11 0 14 -8.5t3 -26.5v-78q0 -18 -3 -27t-14 -9h-24q-62 0 -108.5 14.5t-92.5 49t-97.5 92.5t-122.5 145q-2 -90 -32 -147.5t-88.5 -92t-146.5 -48t-204 -13.5h-24q-17 0 -17 36v78z" />
    <glyph glyph-name="uniFB92" unicode="&#x6af;" horiz-adv-x="1692" arabic-form="isolated" 
d="M1608 940q-46 -13 -98.5 -29.5t-108 -34t-112 -35t-107 -34.5t-93 -32t-72.5 -27q51 -45 100 -89.5t87 -96.5q24 -32 42 -62t31 -61.5t19.5 -65t6.5 -72.5q0 -89 -29.5 -148.5t-96 -96.5t-172 -53t-257.5 -16h-180q-226 0 -341 67.5t-115 214.5q0 44 10.5 85.5t25 73.5
t29.5 51t24 19q12 0 19.5 -6t7.5 -18q0 -7 -6 -18t-13 -27.5t-13 -38.5t-6 -48q0 -40 19.5 -76.5t66.5 -65.5t127.5 -46t203.5 -17q129 0 226 4.5t167 13.5t116 22.5t73.5 32t38.5 41t11 50.5q0 22 -13 49t-33.5 55.5t-46 56t-51 52t-48.5 44.5t-38 31l-7 -30l-78 83
q-15 17 -24.5 28t-15 18.5t-7.5 13t-2 10.5q0 10 6.5 30.5t15.5 42.5t18 40t14 20q4 2 11 5t30.5 10.5t68.5 22.5l125 40q80 25 199.5 63t291.5 93zM1629 1284l-34 -105q-63 -19 -145 -45t-169.5 -55t-174.5 -59.5t-160 -58.5l37 109z" />
    <glyph glyph-name="uniFB93" unicode="&#x6af;" horiz-adv-x="1750" arabic-form="final" 
d="M1608 940q-46 -13 -98.5 -29.5t-108 -34t-112 -35t-107 -34.5t-93 -32t-72.5 -27q32 -26 65 -56.5t68.5 -66t75 -77t86.5 -91.5l188 -203q25 -26 51 -46t55 -33t63.5 -19.5t75.5 -6.5h11q10 0 13.5 -8.5t3.5 -26.5v-78q0 -18 -3.5 -27t-13.5 -9h-24q-55 0 -99.5 11.5
t-91 44t-101 91.5t-130.5 154q-3 -70 -18 -116.5t-46 -79.5q-31 -35 -78 -57.5t-124 -36t-193 -19t-283 -5.5q-226 0 -341 67.5t-115 214.5q0 44 10.5 85.5t25 73.5t29.5 51t24 19q12 0 19.5 -6t7.5 -18q0 -7 -6 -18t-13 -27.5t-13 -38.5t-6 -48q0 -40 19.5 -76.5
t66.5 -65.5t127.5 -46t203.5 -17q194 0 318 10.5t195.5 31t98.5 51t27 71.5q0 22 -11.5 48.5t-32 56t-47 59.5t-55.5 60q-37 36 -74 69.5t-67 60.5t-48.5 48t-18.5 34q0 6 5 23t11.5 35.5t12.5 33t8 16.5q4 2 11 5t30.5 10.5t68.5 22.5l125 40q80 25 199.5 63t291.5 93z
M1629 1284l-34 -105q-63 -19 -145 -45t-169.5 -55t-174.5 -59.5t-160 -58.5l37 109z" />
    <glyph glyph-name="uniFB94" unicode="&#x6af;" horiz-adv-x="877" arabic-form="initial" 
d="M797 940q-45 -13 -98 -29.5t-108.5 -34t-111.5 -35t-107 -34.5t-93.5 -32t-72.5 -27q51 -45 100 -89.5t87 -96.5q24 -32 42.5 -62t31 -61.5t19 -65t6.5 -72.5q0 -90 -30.5 -147.5t-90 -92t-148 -48t-204.5 -13.5h-24q-17 0 -17 36v78q0 35 17 35h24q47 0 96 2t94.5 7.5
t85.5 15.5t69.5 27t46.5 41t17 59q0 22 -12.5 49t-33 55.5t-46 56t-51 52t-49 44.5t-38.5 31l-7 -30q-20 20 -41.5 42.5t-36.5 40.5q-15 17 -24.5 28t-15 18.5t-7 13t-1.5 10.5q0 10 6 30.5t15 42.5t18 40t14 20q3 2 11 5t31 10.5l69 22.5l124 40q81 25 200 63t291 93z
M818 1284l-34 -105q-63 -19 -145 -45t-169.5 -55t-174.5 -59.5t-160 -58.5l37 109z" />
    <glyph glyph-name="uniFB95" unicode="&#x6af;" horiz-adv-x="928" arabic-form="medial" 
d="M-22 114q0 35 17 35h24q47 0 96 2t94.5 7.5t85.5 15.5t69.5 27t46.5 41t17 59q0 22 -12 48.5t-32.5 56t-46.5 59.5t-56 60q-36 36 -73 69.5t-67 60.5t-48.5 48t-18.5 34q0 6 5 23t12 35.5t15 33t12 16.5q3 2 11 5t31 10.5l69 22.5l124 40q81 25 200 63t291 93l-47 -139
q-45 -13 -98 -29.5t-108.5 -34t-111.5 -35t-107 -34.5t-93.5 -32t-72.5 -27q30 -26 61.5 -56t66 -65.5t74 -77.5t86.5 -92l188 -203q25 -26 51 -46t55 -33t62.5 -19.5t74.5 -6.5h10q11 0 14 -8.5t3 -26.5v-78q0 -18 -3 -27t-14 -9h-24q-54 0 -97.5 11.5t-90 44t-101.5 91.5
t-130 154q-3 -90 -33.5 -147.5t-89 -92t-146.5 -48t-204 -13.5h-24q-17 0 -17 36v78zM818 1284l-34 -105q-63 -19 -145 -45t-169.5 -55t-174.5 -59.5t-160 -58.5l37 109z" />
    <glyph glyph-name="uniFB96" unicode="&#x6b3;" horiz-adv-x="1692" arabic-form="isolated" 
d="M1608 940q-46 -13 -98.5 -29.5t-108 -34t-112 -35t-107 -34.5t-93 -32t-72.5 -27q51 -45 100 -89.5t87 -96.5q24 -32 42 -62t31 -61.5t19.5 -65t6.5 -72.5q0 -89 -29.5 -148.5t-96 -96.5t-172 -53t-257.5 -16h-180q-226 0 -341 67.5t-115 214.5q0 44 10.5 85.5t25 73.5
t29.5 51t24 19q12 0 19.5 -6t7.5 -18q0 -7 -6 -18t-13 -27.5t-13 -38.5t-6 -48q0 -40 19.5 -76.5t66.5 -65.5t127.5 -46t203.5 -17q129 0 226 4.5t167 13.5t116 22.5t73.5 32t38.5 41t11 50.5q0 22 -13 49t-33.5 55.5t-46 56t-51 52t-48.5 44.5t-38 31l-7 -30l-78 83
q-15 17 -24.5 28t-15 18.5t-7.5 13t-2 10.5q0 10 6.5 30.5t15.5 42.5t18 40t14 20q4 2 11 5t30.5 10.5t68.5 22.5l125 40q80 25 199.5 63t291.5 93zM1629 1284l-34 -105q-63 -19 -145 -45t-169.5 -55t-174.5 -59.5t-160 -58.5l37 109zM691 -353l-106 105l106 103l106 -103z
M691 -595l-106 105l106 103l106 -103z" />
    <glyph glyph-name="uniFB97" unicode="&#x6b3;" horiz-adv-x="1750" arabic-form="final" 
d="M1608 940q-46 -13 -98.5 -29.5t-108 -34t-112 -35t-107 -34.5t-93 -32t-72.5 -27q32 -26 65 -56.5t68.5 -66t75 -77t86.5 -91.5l188 -203q25 -26 51 -46t55 -33t63.5 -19.5t75.5 -6.5h11q10 0 13.5 -8.5t3.5 -26.5v-78q0 -18 -3.5 -27t-13.5 -9h-24q-55 0 -99.5 11.5
t-91 44t-101 91.5t-130.5 154q-3 -70 -18 -116.5t-46 -79.5q-31 -35 -78 -57.5t-124 -36t-193 -19t-283 -5.5q-226 0 -341 67.5t-115 214.5q0 44 10.5 85.5t25 73.5t29.5 51t24 19q12 0 19.5 -6t7.5 -18q0 -7 -6 -18t-13 -27.5t-13 -38.5t-6 -48q0 -40 19.5 -76.5
t66.5 -65.5t127.5 -46t203.5 -17q194 0 318 10.5t195.5 31t98.5 51t27 71.5q0 22 -11.5 48.5t-32 56t-47 59.5t-55.5 60q-37 36 -74 69.5t-67 60.5t-48.5 48t-18.5 34q0 6 5 23t11.5 35.5t12.5 33t8 16.5q4 2 11 5t30.5 10.5t68.5 22.5l125 40q80 25 199.5 63t291.5 93z
M1629 1284l-34 -105q-63 -19 -145 -45t-169.5 -55t-174.5 -59.5t-160 -58.5l37 109zM695 -347l-107 105l107 103l106 -103zM695 -589l-107 104l107 103l106 -103z" />
    <glyph glyph-name="uniFB98" unicode="&#x6b3;" horiz-adv-x="877" arabic-form="initial" 
d="M797 940q-45 -13 -98 -29.5t-108.5 -34t-111.5 -35t-107 -34.5t-93.5 -32t-72.5 -27q51 -45 100 -89.5t87 -96.5q24 -32 42.5 -62t31 -61.5t19 -65t6.5 -72.5q0 -90 -30.5 -147.5t-90 -92t-148 -48t-204.5 -13.5h-24q-17 0 -17 36v78q0 35 17 35h24q47 0 96 2t94.5 7.5
t85.5 15.5t69.5 27t46.5 41t17 59q0 22 -12.5 49t-33 55.5t-46 56t-51 52t-49 44.5t-38.5 31l-7 -30q-20 20 -41.5 42.5t-36.5 40.5q-15 17 -24.5 28t-15 18.5t-7 13t-1.5 10.5q0 10 6 30.5t15 42.5t18 40t14 20q3 2 11 5t31 10.5l69 22.5l124 40q81 25 200 63t291 93z
M818 1284l-34 -105q-63 -19 -145 -45t-169.5 -55t-174.5 -59.5t-160 -58.5l37 109zM238 -353l-107 105l107 103l105 -103zM238 -595l-107 105l107 103l105 -103z" />
    <glyph glyph-name="uniFB99" unicode="&#x6b3;" horiz-adv-x="928" arabic-form="medial" 
d="M-22 114q0 35 17 35h24q47 0 96 2t94.5 7.5t85.5 15.5t69.5 27t46.5 41t17 59q0 22 -12 48.5t-32.5 56t-46.5 59.5t-56 60q-36 36 -73 69.5t-67 60.5t-48.5 48t-18.5 34q0 6 5 23t12 35.5t15 33t12 16.5q3 2 11 5t31 10.5l69 22.5l124 40q81 25 200 63t291 93l-47 -139
q-45 -13 -98 -29.5t-108.5 -34t-111.5 -35t-107 -34.5t-93.5 -32t-72.5 -27q30 -26 61.5 -56t66 -65.5t74 -77.5t86.5 -92l188 -203q25 -26 51 -46t55 -33t62.5 -19.5t74.5 -6.5h10q11 0 14 -8.5t3 -26.5v-78q0 -18 -3 -27t-14 -9h-24q-54 0 -97.5 11.5t-90 44t-101.5 91.5
t-130 154q-3 -90 -33.5 -147.5t-89 -92t-146.5 -48t-204 -13.5h-24q-17 0 -17 36v78zM818 1284l-34 -105q-63 -19 -145 -45t-169.5 -55t-174.5 -59.5t-160 -58.5l37 109zM386 -351l-106 105l106 103l106 -103zM386 -593l-106 105l106 103l106 -103z" />
    <glyph glyph-name="uniFB9A" unicode="&#x6b1;" horiz-adv-x="1692" arabic-form="isolated" 
d="M1608 940q-46 -13 -98.5 -29.5t-108 -34t-112 -35t-107 -34.5t-93 -32t-72.5 -27q51 -45 100 -89.5t87 -96.5q24 -32 42 -62t31 -61.5t19.5 -65t6.5 -72.5q0 -89 -29.5 -148.5t-96 -96.5t-172 -53t-257.5 -16h-180q-226 0 -341 67.5t-115 214.5q0 44 10.5 85.5t25 73.5
t29.5 51t24 19q12 0 19.5 -6t7.5 -18q0 -7 -6 -18t-13 -27.5t-13 -38.5t-6 -48q0 -40 19.5 -76.5t66.5 -65.5t127.5 -46t203.5 -17q129 0 226 4.5t167 13.5t116 22.5t73.5 32t38.5 41t11 50.5q0 22 -13 49t-33.5 55.5t-46 56t-51 52t-48.5 44.5t-38 31l-7 -30l-78 83
q-15 17 -24.5 28t-15 18.5t-7.5 13t-2 10.5q0 10 6.5 30.5t15.5 42.5t18 40t14 20q4 2 11 5t30.5 10.5t68.5 22.5l125 40q80 25 199.5 63t291.5 93zM1629 1284l-34 -105q-63 -19 -145 -45t-169.5 -55t-174.5 -59.5t-160 -58.5l37 109zM1277 1347l-102 -107l-105 107l105 106
zM1035 1347l-103 -107l-104 107l104 106z" />
    <glyph glyph-name="uniFB9B" unicode="&#x6b1;" horiz-adv-x="1750" arabic-form="final" 
d="M1608 940q-46 -13 -98.5 -29.5t-108 -34t-112 -35t-107 -34.5t-93 -32t-72.5 -27q32 -26 65 -56.5t68.5 -66t75 -77t86.5 -91.5l188 -203q25 -26 51 -46t55 -33t63.5 -19.5t75.5 -6.5h11q10 0 13.5 -8.5t3.5 -26.5v-78q0 -18 -3.5 -27t-13.5 -9h-24q-55 0 -99.5 11.5
t-91 44t-101 91.5t-130.5 154q-3 -70 -18 -116.5t-46 -79.5q-31 -35 -78 -57.5t-124 -36t-193 -19t-283 -5.5q-226 0 -341 67.5t-115 214.5q0 44 10.5 85.5t25 73.5t29.5 51t24 19q12 0 19.5 -6t7.5 -18q0 -7 -6 -18t-13 -27.5t-13 -38.5t-6 -48q0 -40 19.5 -76.5
t66.5 -65.5t127.5 -46t203.5 -17q194 0 318 10.5t195.5 31t98.5 51t27 71.5q0 22 -11.5 48.5t-32 56t-47 59.5t-55.5 60q-37 36 -74 69.5t-67 60.5t-48.5 48t-18.5 34q0 6 5 23t11.5 35.5t12.5 33t8 16.5q4 2 11 5t30.5 10.5t68.5 22.5l125 40q80 25 199.5 63t291.5 93z
M1629 1284l-34 -105q-63 -19 -145 -45t-169.5 -55t-174.5 -59.5t-160 -58.5l37 109zM1284 1346l-102 -107l-105 107l105 106zM1041 1346l-103 -107l-104 107l104 106z" />
    <glyph glyph-name="uniFB9C" unicode="&#x6b1;" horiz-adv-x="877" arabic-form="initial" 
d="M797 940q-45 -13 -98 -29.5t-108.5 -34t-111.5 -35t-107 -34.5t-93.5 -32t-72.5 -27q51 -45 100 -89.5t87 -96.5q24 -32 42.5 -62t31 -61.5t19 -65t6.5 -72.5q0 -90 -30.5 -147.5t-90 -92t-148 -48t-204.5 -13.5h-24q-17 0 -17 36v78q0 35 17 35h24q47 0 96 2t94.5 7.5
t85.5 15.5t69.5 27t46.5 41t17 59q0 22 -12.5 49t-33 55.5t-46 56t-51 52t-49 44.5t-38.5 31l-7 -30q-20 20 -41.5 42.5t-36.5 40.5q-15 17 -24.5 28t-15 18.5t-7 13t-1.5 10.5q0 10 6 30.5t15 42.5t18 40t14 20q3 2 11 5t31 10.5l69 22.5l124 40q81 25 200 63t291 93z
M818 1284l-34 -105q-63 -19 -145 -45t-169.5 -55t-174.5 -59.5t-160 -58.5l37 109zM455 1346l-102 -107l-104 107l104 106zM213 1346l-103 -107l-104 107l104 106z" />
    <glyph glyph-name="uniFB9D" unicode="&#x6b1;" horiz-adv-x="928" arabic-form="medial" 
d="M-22 114q0 35 17 35h24q47 0 96 2t94.5 7.5t85.5 15.5t69.5 27t46.5 41t17 59q0 22 -12 48.5t-32.5 56t-46.5 59.5t-56 60q-36 36 -73 69.5t-67 60.5t-48.5 48t-18.5 34q0 6 5 23t12 35.5t15 33t12 16.5q3 2 11 5t31 10.5l69 22.5l124 40q81 25 200 63t291 93l-47 -139
q-45 -13 -98 -29.5t-108.5 -34t-111.5 -35t-107 -34.5t-93.5 -32t-72.5 -27q30 -26 61.5 -56t66 -65.5t74 -77.5t86.5 -92l188 -203q25 -26 51 -46t55 -33t62.5 -19.5t74.5 -6.5h10q11 0 14 -8.5t3 -26.5v-78q0 -18 -3 -27t-14 -9h-24q-54 0 -97.5 11.5t-90 44t-101.5 91.5
t-130 154q-3 -90 -33.5 -147.5t-89 -92t-146.5 -48t-204 -13.5h-24q-17 0 -17 36v78zM818 1284l-34 -105q-63 -19 -145 -45t-169.5 -55t-174.5 -59.5t-160 -58.5l37 109zM455 1346l-102 -107l-104 107l104 106zM213 1346l-103 -107l-104 107l104 106z" />
    <glyph glyph-name="uniFB9E" unicode="&#x6ba;" horiz-adv-x="1177" arabic-form="isolated" 
d="M1092 -116q-2 -219 -202 -329q-163 -89 -414 -89q-144 0 -247 75q-127 91 -127 261q0 129 52 244q46 105 84 105q23 0 23 -21q0 3 -35 -76t-35 -162q0 -266 351 -266q159 0 298 50q189 66 189 192q0 72 -31 137q-29 61 -116 184l76 144q136 -221 134 -449z" />
    </font>
</defs>
</svg>
